Welcome Guest ( Log In | Register )

Объявления

* gmail.com упорно продолжает считать почту с нас "unsolicited" и отбивает в том числе и письма активации, поэтому просьба использовать альтернативные почтовые ящики.
------------
* gmail.com continues reject all mail from us as "unsolicited" (activation mails too) therefore please use alternate mail servers.

> 

Здесь релизы с живыми прямыми ссылками на lossless

> Locus Animæ - Magia D'inchiostro [single] (2023), Gothic/Black Metal
post Feb 11 2023, 19:49:04
Post #1

Правь статус, ####!111
**************
Group: Металариец
Posts: 7,685
Releases: 7027
From: Одесса
On Forums: 16 years 1 month
Thanks: 82017 time(s)
Ukraine


(IMG:http://metalarea.org/images/audiocovers/2023_Feb/acov_tid376566_thumb.jpg)

*Artist: Locus Animæ
*Album: Magia D'inchiostro [single]
*Year: 2023
*Genre: Gothic/Black Metal
*Country: Italy (IMG:http://metalarea.org/forum/style_images/flags/Italy.png)
*Format: flac
*Size: 72MB

Tracklist:
1. Magia D'Inchiostro 05:34
******************************
Total playing time: 5:34



Extended info
Line - up:

Nicolò Paracchini - Bass, Vocals (backing), Flute (Agoraphobia, Amalekim, Argesh, Astray, Cortexiphan, Helion, I Hate When Elevator's Door Open Up and a Raptor Appears in Front of Me, ex-Evideon, Insideyes, Regression in Enthropia, ex-Ghostly Aerie Coven (live), ex-Humm (live), ex-Kenòs (live))
Brian Cara - Guitars, Guitars (rhythm)
Gregory Sobrio - Vocals, Ocarina, Vocals (Ego the Enemy, Nocturnal Breeze, ex-Evideon, Argesh (live))
Emmanuele Iacono - Guitars (lead) (Flamestrike, Helion)
Vera Clinco - Vocals (Caelestis, ex-Cynerea, ex-Mefas)
Norman Ceriotti - Drums (Defamed, Ego the Enemy, Celtic Hills (live), Dark Phantom (live), Fictio Solemnis (live), Grind Zero (live), Olamot (live), StartingFire (live), ex-Astral Path, ex-Eden Beast, ex-Alkemy (live), Blue Neon, Clairvoyance, Olona Trio, Putrefactlungsgrinder, Roll for Initiative, ex-Alltheniko (live), ex-Cyrax (live), ex-Deathtopia (live), ex-Delirant Chaotic Sound (live), ex-Lelahell (live), ex-Stormcrow (live))


Technical info
(IMG:http://metalarea.org/images/spectrogram/2023_Feb/73db3ff81cbc8ec5f524d6c43dacbd91.png)
Input File: 01 Magia D\'Inchiostro.flac
Channels : 2
Sample Rate : 44100
Precision : 24-bit
Duration : 00:05:34.61 = 14756308 samples = 25095.8 CDDA sectors
File Size : 71.9M
Bit Rate : 1.72M
Sample Encoding: 24-bit FLAC
Comments :
ISRC=QZTBB2212862
Lyrics=Sguardi
Celati
Nel buio
Oltre me



Register


Go to the top of the page
  Insert nick Quick quote
+Quote Post
 
Start new topic
Replies (1 - 1)
post Feb 12 2023, 05:29:56
Post #2

Правь статус, ####!111
**************
Group: Металариец
Posts: 3,226
Releases: 0
From: д. Гадюкино
On Forums: 10 years 1 month
Thanks: 3314 time(s)
Russian Federation


MP3
Register


Thanks:
(2) Sanctus, wreak,
Go to the top of the page
  Insert nick Quick quote
+Quote Post

Reply to this topicStart new topic
1 User(s) are reading this topic (1 Guests and 0 Anonymous Users)
0 Members:

 



- Lo-Fi Version Support form
Copyrights and abuse reports form
Time is now: 13th July 2024 - 05:14:52