Welcome Guest ( Log In | Register )

> The Convalescence - Harvesters Of Flesh And Bone (2023), Symphonic Metalcore/Deathcore (D4)
post Mar 18 2023, 18:11:54
Post #1

Правь статус, ####!111
**************
Group: Металариец
Posts: 7,293
Releases: 6670
From: Одесса
On Forums: 15 years 9 months
Thanks: 77679 time(s)
Ukraine


(IMG:http://metalarea.org/images/audiocovers/2023_Mar/acov_tid378309_thumb.jpg)

*Artist: The Convalescence
*Album: Harvesters Of Flesh And Bone
*Year: 2023
*Genre: Symphonic Metalcore/Deathcore
*Country: United States (IMG:http://metalarea.org/forum/style_images/flags/United%20States.png)
*Format: mp3@CBR320kbps
*Size: 88MB

Tracklist:
1. Harvesters of Flesh and Bone 03:51
2. Reaper 03:28
3. Bloodletter 03:24
4. No Survivors 02:55
5. Sacrificial Offering 02:58
6. 79 Years 03:36
7. The Worst of All Creations 02:48
8. Undead Swarm 03:20
9. Ignite the Flames 03:15
10. Fire & Blood 03:34
11. Experiment Complete 03:41
******************************
Total playing time: 36:50

Extended info
Line - up:

Ronald Buckley - Bass
Keith Wampler - Vocals (ex-Blood of the Prophets)
Toby Wright - Guitars, Vocals (ex-As Empires Decay)




Technical info
(IMG:http://metalarea.org/images/spectrogram/2023_Mar/1b5807efbc4f4c4e3300e53c5a981ee1.png)
Input File: 07 - The Worst Of All Creations.mp3
Channels : 2
Sample Rate : 44100
Precision : 16-bit
Duration : 00:02:48.19 = 7417091 samples = 12614.1 CDDA sectors
File Size : 6.73M
Bit Rate : 320k
Sample Encoding: MPEG audio (layer I, II or III)
Comments :
Title=The Worst Of All Creations
Artist=The Convalescence
Album=Harvesters Of Flesh And Bone
Tracknumber=7
Year=2023
Genre=Symphonic Metalcore | Deathcore



Register


Go to the top of the page
  Insert nick Quick quote
+Quote Post
 
Start new topic
Replies (1 - 2)
post May 13 2023, 04:16:17
Post #2

i listen to black metal
**************
Group: Металариец
Posts: 4,019
Releases: 150
From: Москва
On Forums: 17 years 2 months
Thanks: 2621 time(s)
Russian Federation


спасибо за мульт!!!!!
Go to the top of the page
  Insert nick Quick quote
+Quote Post
post Jun 3 2023, 00:42:03
Post #3

Правь статус, ####!111
**************
Group: Металариец
Posts: 3,132
Releases: 0
On Forums: 15 years 2 weeks
Thanks: 1533 time(s)
South Korea


1. 320 kbps from the web:
Register


2. Each track previewable or downloadable at 320 kbps for free (if you want to preview or miss some tracks):
Register


[All credits go to the band and the posters].
Go to the top of the page
  Insert nick Quick quote
+Quote Post

Reply to this topicStart new topic
1 User(s) are reading this topic (1 Guests and 0 Anonymous Users)
0 Members:

 



- Lo-Fi Version Support form
Copyrights and abuse reports form
Time is now: 3rd March 2024 - 07:59:47