Welcome Guest ( Log In | Register )

> Releases Upload / Добавление релизов

Добавить релиз тут / Click here to add release
Рекомендованные обменники / Recommended file shares

 
Reply to this topicStart new topic
> Praise - Sacrosanct Cynicism (2024), Death Metal/Grindcore
post Feb 11 2024, 18:08:46
Post #1

Правь статус, ####!111
**************
Group: Металариец
Posts: 7,252
Releases: 6633
From: Одесса
On Forums: 15 years 8 months
Thanks: 77152 time(s)
Ukraine


(IMG:https://metalarea.org/images/audiocovers/2024_Feb/acov_tid392323_thumb.jpg)

*Artist: Praise
*Album: Sacrosanct Cynicism
*Year: 2024
*Genre: Death Metal/Grindcore
*Country: Finland (IMG:https://metalarea.org/forum/style_images/flags/Finland.png)
*Format: mp3@CBR320kbps
*Size: 56MB

Tracklist:
1. Poison Spitter 01:57
2. Wrench Thrower 00:40
3. Bescherung 00:35
4. Son of God Sonogram 02:14
5. Hate Blossoms in Strange Colors 00:33
6. A Coin Tossed 00:50
7. Love Shifts Leaders Through Centuries 00:18
8. Endurance and Transition 02:11
9. Cloven Hoof Shoes 03:46
10. Panoptic Cop Behavior 00:53
11. Swords to Plowhshares 01:00
12. Futile Race 01:56
13. Delayed Choice Quantum Eraser 01:22
14. Anthropomorphisms 05:02
******************************
Total playing time: 23:17



Extended info
Line - up:

Joona - Bass
Santtu - Drums (Frogskin, Unearthly Rites, Urban Disposal, ex-Hexhammer)
Simo - Guitars (Bolt Cross, Dome Runner, Fuck-Ushima, Igniter, Unearthly Rites, ex-Decibel Hammer, ex-Paleskin, ex-Nuclear Omnicide)
Lassi - Vocals


Technical info
(IMG:https://metalarea.org/images/spectrogram/2024_Feb/f21edf6dbde6aba502d7733aa3fadedf.png)
Input File: 11. Swords to Plowshares.mp3
Channels : 2
Sample Rate : 44100
Precision : 16-bit
Duration : 00:01:00.56 = 2670608 samples = 4541.85 CDDA sectors
File Size : 2.42M
Bit Rate : 320k
Sample Encoding: MPEG audio (layer I, II or III)
Comments :
Title=Swords to Plowshares
Artist=Praise
Album=Sacrosanct Cynicism
Tracknumber=11
Year=2024
Genre=Death Metal | Grindcore



Register


Go to the top of the page
  Insert nick Quick quote
+Quote Post

Reply to this topicStart new topic
1 User(s) are reading this topic (1 Guests and 0 Anonymous Users)
0 Members:

 



- Lo-Fi Version Support form
Copyrights and abuse reports form
Time is now: 23rd February 2024 - 10:47:22