Welcome Guest ( Log In | Register )

 
Reply to this topicStart new topic
> Inertzia - Capitulate (2024), Groove Metal
post Feb 12 2024, 07:57:07
Post #1

Правь статус, ####!111
**************
Group: Металариец
Posts: 8,638
Releases: 6882
On Forums: 13 years 4 months
Thanks: 120800 time(s)
Italy


(IMG:https://metalarea.org/images/audiocovers/2024_Feb/acov_tid392335_thumb.jpg)

*Artist: Inertzia
*Album: Capitulate
*Year: 2024
*Genre: Groove Metal
*Country: France (IMG:https://metalarea.org/forum/style_images/flags/France.png)
*Format: mp3@CBR320kbps
*Size: 87MB

Tracklist:
1.Intro 01:25
2.Outlaw Time 03:53
3.Burn 04:21
4.Alone 03:25
5.Confess 05:11
6.Inertzia 05:09
7.Scam at the Heigh 04:15
8.Capitulate 03:05
9.Breath 06:20
******************************
Total playing time: 37:04

(IMG:https://metalarea.org/images/youtube.png)

Technical info
(IMG:https://metalarea.org/images/spectrogram/2024_Feb/2771d18c7cec2d971374657a04b5d55c.png)
Input File: 2.Outlaw Time.mp3
Channels : 2
Sample Rate : 44100
Precision : 16-bit
Duration : 00:03:53.42 = 10293822 samples = 17506.5 CDDA sectors
File Size : 9.91M
Bit Rate : 340k
Sample Encoding: MPEG audio (layer I, II or III)
Comments :
Title=Outlaw Time
Artist=Inertzia
Album=Capitulate
Tracknumber=2/9
Year=2024
Discnumber=1/1



Register


Go to the top of the page
  Insert nick Quick quote
+Quote Post

Reply to this topicStart new topic
1 User(s) are reading this topic (1 Guests and 0 Anonymous Users)
0 Members:

 



- Lo-Fi Version Support form
Copyrights and abuse reports form
Time is now: 15th April 2024 - 04:25:06