Help - Search - Members - Calendar
Full Version: Forevers' Fallen Grace - Firebound Manifesto (2012)
Metal Area - Extreme Music Portal > Releases Area / Релизы > New Releases > Lossless
Evgundel


*Artist: Forevers' Fallen Grace
*Album: Firebound Manifesto
*Year: 2012
*Genre: Epic Power/Heavy Metal
*Country: United States
*Format: mp3@CBR320kbps
*Size: 122MB

Tracklist:
1. A Slow Epic 08:00
2. Dominion 06:26
3. Wrought From Within 04:58
4. Unrequited 04:54
5. Sky's Last Breath 04:55
6. Bane Of Harmony 04:32
7. The Dying Light 06:22
8. From The Shadows...To The Dark 07:03
9. Come To The Sabbath (Mercyful Fate cover) 06:03
******************************
Total playing time: 53:17




Preview 4

Technical info

Input File: 04 Unrequited.mp3
Channels : 2
Sample Rate : 44100
Precision : 16-bit
Duration : 00:04:54.40 = 12983216 samples = 22080.3 CDDA sectors
File Size : 11.9M
Bit Rate : 324k
Sample Encoding: MPEG audio (layer I, II or III)
Comments :
Title=Unrequited
Artist=Forevers' Fallen Grace
Album=Firebound Manifesto
Tracknumber=4
Year=2012
Genre=Metal



[ Hidden Text ]
sperminator
зеркало, из сети:
[ Hidden Text ]
quarantine
can you renew the link
Borderline1991
[ Hidden Text ][ Hidden Text ]
This is a "lo-fi" version of our main content. To view the full version with more information, formatting and images, please click here.
Invision Power Board © 2001-2021 Invision Power Services, Inc.