Help - Search - Members - Calendar
Full Version: Goathawkbuffalo - Come To Temple (2019)
Metal Area - Extreme Music Portal > Releases Area / Релизы > Archive
TDM


*Artist: Goathawkbuffalo
*Album: Come To Temple
*Year: 2019
*Genre: Stoner Metal/Rock
*Country: Denmark
*Format: mp3@CBR320kbps
*Size: 92MB

Tracklist:
1. Broken Whore 03:17
2. Come to Temple 03:54
3. Soil n Mud 05:12
4. The Ridge 04:24
5. Pretty Promise 03:35
6. Life is Chaos 03:30
7. Buried Alive 03:58
8. Chuck 02:44
9. Get Defensive 03:22
10. Pound 06:37
******************************
Total playing time: 40:33



Technical info

Input File: 07 - Buried Alive.mp3
Channels : 2
Sample Rate : 44100
Precision : 16-bit
Duration : 00:03:59.09 = 10543649 samples = 17931.4 CDDA sectors
File Size : 9.56M
Bit Rate : 320k
Sample Encoding: MPEG audio (layer I, II or III)
Comments :
Title=Buried Alive
Artist=Goathawkbuffalo
Album=Come To Temple
Tracknumber=7
Year=2019
Genre=Sludge/Stoner Metal



[ Hidden Text ]
TDM
што происходит?
удаляются комментарии
сабж переносится в неформат
при том, что уж в слудге/стоунер метал/рок он точно попадает, то есть формат
This is a "lo-fi" version of our main content. To view the full version with more information, formatting and images, please click here.
Invision Power Board © 2001-2020 Invision Power Services, Inc.