Help - Search - Members - Calendar
Full Version: Solstice - Casting The Die (2021)
Metal Area - Extreme Music Portal > Releases Area / Релизы > New Releases
Samaritianin


*Artist: Solstice
*Album: Casting The Die
*Year: 2021
*Genre: Thrash/Death Metal
*Country: United States
*Format: mp3@CBR320kbps
*Size: 97MB

Tracklist:
1. The Altruist 03:36
2. Transparent 03:26
3. Who Bleeds Whom 04:35
4. Lifeline 03:53
5. Ignite 03:31
6. Outlast 03:04
7. Seven 03:09
8. Embellishment Exposed 03:43
9. Cast the Die 04:02
10. Eyes Sewn Shut 04:03
11. Scratch 04:41
******************************
Total playing time: 41:43




Extended info
Alex Marquez Drums
Dennis Munoz Guitars
Ryan Taylor Vocals, Guitars
Marcel Salas Bass



Technical info

Input File: Solstice - Casting The Die - 10 Eyes Sewn Shut.mp3
Channels : 2
Sample Rate : 44100
Precision : 16-bit
Duration : 00:04:03.11 = 10721063 samples = 18233.1 CDDA sectors
File Size : 9.89M
Bit Rate : 325k
Sample Encoding: MPEG audio (layer I, II or III)
Comments :
Title=Eyes Sewn Shut
Artist=Solstice
Album=Casting The Die
Tracknumber=10
Year=2021



[ Hidden Text ]
Samaritianin
FLAC (Tracks) 274 mb
[ Hidden Text ]
hammer
Альбом из розряда послушал-забыл.
JPV
По любому мастерство не пропьёшь. Играть умеют. Остальное дело вкуса.
Dirt_ORFEY
Ни чё такой альбом выдали ветераны. Бодрячком, с неплохими соло. Как сказали выше - мастерство не пропьёшь. Группа никогда звёзд с неба не хватала, но выдавала стабильно крепкий материал. Вот и здесь не плохо получилось. Мне понравилось, а остальное, дело вкуса, да.
asog
Да ваще отлично. Переслушаю-ка все их полноформаты.
This is a "lo-fi" version of our main content. To view the full version with more information, formatting and images, please click here.
Invision Power Board © 2001-2021 Invision Power Services, Inc.