Help - Search - Members - Calendar
Full Version: Immortal Sÿnn - Force Of Habit (2021)
Metal Area - Extreme Music Portal > Releases Area / Релизы > Archive
wolfskaiser


*Artist: Immortal Sÿnn
*Album: Force Of Habit
*Year: 2021
*Genre: Heavy Metal
*Country: United States
*Format: mp3@CBR320kbps
*Size: 98MB

Tracklist:
01. Anamnesis
02. Fight The Prince
03. F.U.D.C.
04. The Ballad Of Marvin Heemeyer
05. The Mailman Song
06. Nuclear Terror
07. Satan's Tavern
08. Denver Nights
09. Force Of Habit
10. Whisley II: The Wrath Of Corn
******************************
Total playing time: 40:31

Technical info

Input File: 02. Fight The Prince.mp3
Channels : 2
Sample Rate : 44100
Precision : 16-bit
Duration : 00:04:28.77 = 11852537 samples = 20157.4 CDDA sectors
File Size : 10.8M
Bit Rate : 322k
Sample Encoding: MPEG audio (layer I, II or III)
Comments :
Title=Fight the Prince
Artist=Immortal Sÿnn
Album=Force of Habit
Tracknumber=2
Year=2021-05-07
Genre=Alternative / Indie Rock / Metal
Discnumber=1



[ Hidden Text ]
AHBAnep
https://music.yandex.ru/album/13651561
Витон
Хорошая группа,играющая хороший хэви-трэш легкоузнаваемой Американской школы!!!!!
Andrew


Неплохо, но хотелось бы вокал пожещщще!
cesar
Да, вокал бы мощнее!
This is a "lo-fi" version of our main content. To view the full version with more information, formatting and images, please click here.
Invision Power Board © 2001-2021 Invision Power Services, Inc.