Help - Search - Members - Calendar
Full Version: Lacrota - Nuckelavee [ep] (2014)
Metal Area - Extreme Music Portal > Releases Area / Релизы > New Releases > Low Bitrate
Ouroborous


*Artist: Lacrota
*Album: Nuckelavee [ep]
*Year: 2014
*Genre: Progressive Death Metal
*Country: United Kingdom
*Format: mp3@VBR128kbps
*Size: 18MB

Tracklist:
1. Skin Clown 04:47
2. We Can Always Grow New Limbs 04:49
3. Arachnid Egg Sac 05:30
4. Nuckelavee 03:57
******************************
Total playing time: 19:03

Technical info

Input File: Lacrota - Nuckelavee - 02 - We Can Always Grow New Limbs.mp3
Channels : 2
Sample Rate : 44100
Precision : 16-bit
Duration : 00:04:49.55 = 12769155 samples = 21716.2 CDDA sectors
File Size : 4.82M
Bit Rate : 133k
Sample Encoding: MPEG audio (layer I, II or III)
Comments :
Title=We Can Always Grow New Limbs
Artist=Lacrota
Album=Nuckelavee
Tracknumber=02
Year=2014
Genre=Death Metal



[ Hidden Text ]
grinderrr
А разве его беслатно нельзя скачать - хоть во FLAC?


This is a "lo-fi" version of our main content. To view the full version with more information, formatting and images, please click here.
Invision Power Board © 2001-2022 Invision Power Services, Inc.