Help - Search - Members - Calendar
Full Version: Zombie Hyperdrive - Imperium (2020)
Metal Area - Extreme Music Portal > Releases Area / Релизы > New Releases > Unformat R:
Shadowman


*Artist: Zombie Hyperdrive
*Album: Imperium
*Year: 2020
*Genre: Synthwave/Dreamwave
*Country: Germany
*Format: mp3@CBR320kbps
*Size: 104MB

Tracklist:
1. The Future 01:50
2. Imperium 04:07
3. Renaissance Vector 03:58
4. Moon Girl 03:46
5. Mare Infinitus 04:36
6. Refuse to Lose 02:39
7. Old Earth 02:30
8. Rebel Renegade 03:52
9. Sundowner 03:40
10. Awakening 01:52
11. Nemesis 03:05
12. Destiny 05:32
13. Between the Stars 03:48
******************************
Total playing time: 45:15



Extended info
Очень красивый и хитовый альбом. Вероятно, лучший в дискографии.


Technical info

Input File: 02. Imperium.mp3
Channels : 2
Sample Rate : 44100
Precision : 16-bit
Duration : 00:04:07.08 = 10896360 samples = 18531.2 CDDA sectors
File Size : 9.95M
Bit Rate : 322k
Sample Encoding: MPEG audio (layer I, II or III)
Comments :
Title=Imperium
Artist=Zombie Hyperdrive
Album=Imperium
Tracknumber=2
Year=2020
Genre=Electro / Dance
Discnumber=1



[ Hidden Text ]
Old Vyaine
QUOTE(Shadowman @ 14th January 2022 - 00:43:21) *
Очень красивый и хитовый альбом. Вероятно, лучший в дискографии.


Прильнул было, но чот по первым впечатлениям сильно хуже того же Gunship.
This is a "lo-fi" version of our main content. To view the full version with more information, formatting and images, please click here.
Invision Power Board © 2001-2022 Invision Power Services, Inc.