Help - Search - Members - Calendar
Full Version: Axeheart - Through The Seas And Time (2022)
Metal Area - Extreme Music Portal > Releases Area / Релизы > New Releases
kefka


*Artist: Axeheart
*Album: Through The Seas And Time
*Year: 2022
*Genre: Viking/Heavy Metal
*Country: Canada
*Format: mp3@CBR320kbps
*Size: 134MB

Tracklist:
01.The Blackest Heart 03:28
02.Through the Seas and Time 03:37
03.Save Us Odin 03:50
04.The Darkest Night 04:01
05.Walk This Path 02:42
06.Fight and Die 04:24
07.Veritas 06:20
08.Eye for an Eye 04:57
09.Together 04:41
10.Beast in Black 03:08
11.Rocky Mountain Vikings 03:45
12.From the Ashes 04:30
13.Sail Across the Sea 05:33
14.Rise Again 03:19
******************************
Total playing time: 58:15

Technical info

Input File: 03 - Save Us Odin.mp3
Channels : 2
Sample Rate : 44100
Precision : 16-bit
Duration : 00:03:50.08 = 10146352 samples = 17255.7 CDDA sectors
File Size : 9.42M
Bit Rate : 327k
Sample Encoding: MPEG audio (layer I, II or III)
Comments :
Title=Save Us Odin
Artist=Axeheart
Album=Through The Seas And Time
Tracknumber=03
Year=2022
Genre=Viking Heavy Metal



[ Hidden Text ]
AHBAnep

Весёленький Melodic Heavy/Power. Viking разве что в тематике.
Andrew


Nordavind
Странный и невнятный альбом, как будто каждую песню разные группы исполняли.
This is a "lo-fi" version of our main content. To view the full version with more information, formatting and images, please click here.
Invision Power Board © 2001-2022 Invision Power Services, Inc.