Help - Search - Members - Calendar
Full Version: Black Rose - WTF (2022)
Metal Area - Extreme Music Portal > Releases Area / Релизы > New Releases
necroscum


*Artist: Black Rose
*Album: WTF
*Year: 2022
*Genre: Heavy Metal
*Country: United Kingdom
*Format: mp3@CBR320kbps
*Size: 129MB

Tracklist:
01. Crazy Mental Bad 04:43
02. Devils Candy 05:50
03. WTF 04:54
04. Pain 05:50
05. Innocence 03:22
06. Detonator 04:51
07. Under My Skin 04:46
08. Twist the Knife 02:56
09. Tattoos & Lipstick 04:03
10. Never Take Me Alive 04:30
11. Broken 05:48
12. Armageddon 04:16
******************************
Total playing time: 55:49




Technical info

Input File: 02 - Devils Candy.mp3
Channels : 2
Sample Rate : 44100
Precision : 16-bit
Duration : 00:05:50.00 = 15435000 samples = 26250 CDDA sectors
File Size : 14.2M
Bit Rate : 324k
Sample Encoding: MPEG audio (layer I, II or III)
Comments :
Title=Devils Candy
Artist=Black Rose
Album=WTF
Tracknumber=2
Year=2022-06-24
Discnumber=1



[ Hidden Text ]
Витон
Спасибо за новый альбом!!!
isvili
Metalitos
Very Much thanks
This is a "lo-fi" version of our main content. To view the full version with more information, formatting and images, please click here.
Invision Power Board © 2001-2022 Invision Power Services, Inc.