Help - Search - Members - Calendar
Full Version: Liber Null - For Whom Is The Night (2022)
Metal Area - Extreme Music Portal > Releases Area / Релизы > New Releases
kefka


*Artist: Liber Null
*Album: For Whom Is The Night
*Year: 2022
*Genre: Black Metal
*Country: International
*Format: mp3@CBR320kbps
*Size: 89MB

Tracklist:
1.Nocturnal Craft 05:09
2.Hexenblood Vessel 07:37
3.Gandreidh 05:56
4.Mercy as a Blade 05:01
5.To Death's Light 08:35
6.They Listen In 06:33
******************************
Total playing time: 38:51

Preview 1

Extended info
Netherlands / Italy
Line up:
Thorns - Drums (Blut Aus Nord, Darvaza, Frostmoon Eclipse, Kult, Moloch, ex-Acherontas, ex-Glorior Belli, ex-Handful Of Hate, ex-Macabre Omen)
Ades - Guitars, Bass
Psaalm - Vocals (Frostmoon Eclipse, ex-Winterpath)


Technical info

Input File: 04 - Mercy as a Blade.mp3
Channels : 2
Sample Rate : 44100
Precision : 16-bit
Duration : 00:05:01.08 = 13277672 samples = 22581.1 CDDA sectors
File Size : 12.2M
Bit Rate : 323k
Sample Encoding: MPEG audio (layer I, II or III)
Comments :
Title=Mercy as a Blade
Artist=Liber Null
Album=For Whom Is the Night
Tracknumber=04
Year=2022
Genre=Black Metal



[ Hidden Text ]
rimfrost
Vitald
Разово.
This is a "lo-fi" version of our main content. To view the full version with more information, formatting and images, please click here.
Invision Power Board © 2001-2022 Invision Power Services, Inc.