Help - Search - Members - Calendar
Full Version: Whirlwind - 1714 (2022)
Metal Area - Extreme Music Portal > Releases Area / Релизы > Archive
kefka


*Artist: Whirlwind
*Album: 1714
*Year: 2022
*Genre: Heavy Metal
*Country: Spain
*Format: mp3@CBR320kbps
*Size: 125MB

Tracklist:
01.1714 (Intro) 01:37
02.The Call 06:33
03.Under Siege 04:12
04.Rebels Arise! 03:45
05.Torture, Knife & Fire 04:38
06.Gallows Tithe 04:21
07.Cannons of Infuriation 05:44
08.The Bastard Duke 04:38
09.Immortal Heroes 05:27
10.Red September 04:51
11.Echoes of Time 05:19
******************************
Total playing time: 51:05



Extended info
1st album by this spanish Heavy Metal band with a good dose of RUNNING WILD in their sound.


Technical info

Input File: 04 - Rebels Arise!.mp3
Channels : 2
Sample Rate : 44100
Precision : 16-bit
Duration : 00:03:45.00 = 9922500 samples = 16875 CDDA sectors
File Size : 9.36M
Bit Rate : 333k
Sample Encoding: MPEG audio (layer I, II or III)
Comments :
Title=Rebels Arise!
Artist=Whirlwind
Album=1714
Tracknumber=4
Year=2022-11-22
Genre=Rock
Discnumber=1



[ Hidden Text ]
isvili
Прям музыка родом из средины-конца 80-ых.
Winterdark
ЦИТАТА(isvili @ Nov 24 2022, 19:03:47) *
Прям музыка родом из средины-конца 80-ых.

Зато не на испанском fear.gif
This is a "lo-fi" version of our main content. To view the full version with more information, formatting and images, please click here.
Invision Power Board © 2001-2024 Invision Power Services, Inc.