Welcome Guest ( Log In | Register )

История благодарностей участнику Абигор ::: Спасибо сказали: 122113 раз(а)
Дата поста: В теме: За сообщение: Спасибо сказали:
Jan 21 2023, 13:05:24 До Скону - ...And Darkness Was Over The Surface Of The Deep (2023)


*Artist: До Скону
*Album: ...And Darkness Was Over The Surface Of The Deep
*Year: 2023
*Genre: Black Metal
*Country: Ukraine
*Format: mp3@CBR320kbps
*Size: 85MB

Tracklist:
1. Inexplicable Obsession 04:48
2. ... And Darkness Was Over The Surface Of The Deep... 05:06
3. Eschatological Gangrene (Destroyed Katechon) 04:18
4. Final Judgment (Phosphorus Fire) 03:42
5. Abyss Calls Upon Abyss, With The Voice Of The Oceans Of Sands 05:09
6. Plague Requiem 05:21
7. Eschatological Hoax 06:00
******************************
Total playing time: 34:24



[more=Extended info]Zazen Sounds,
January 16th.

Силён, Отец![/more]

[more=Technical info]
Input File: 01 - Inexplicable Obsession.mp3
Channels : 2
Sample Rate : 44100
Precision : 16-bit
Duration : 00:04:47.89 = 12695729 samples = 21591.4 CDDA sectors
File Size : 11.5M
Bit Rate : 320k
Sample Encoding: MPEG audio (layer I, II or III)
Comments :
Title=Inexplicable Obsession
Artist=До Скону
Album=...And Darkness Was Over The Surface Of The Deep
Tracknumber=01/07
Year=2023
Genre=Black Metal

[/more]

Register
(61) aleon, AlexSmith, alikkon, Altkiller, Aresson, artscald, blacky66, bloodwind, bOOLty, dermarsoran, DMIYUR, Emhyr var Emreis, Evilded, Grev, Hell_Is_Here, Hexenmeister, infozahist, judaz, kim666, Konungr, Krosis, LEGION69, Messian, milosdjor, Moonshtook, nadin85, Nattfodd, nemx, nsk2008, Ostinato, Premature_Devotion, Purestenchkvlt, Qliphoth, rammmirez, recber, rimfrost, robertho777, RUSP73, russ777, SadistikSlayer, SaintVitus, sergsazan, sethurius, Shadechaser, Shnapsregen, SilentNidhogg, smes, Strygaldwir, supremo, Surt, suseka, thenecromancer, the_cleanser, VALERY, Varos, vasiljev_sergej, Veggr, Vidyadharov, xska, yarrsuaa, yuratroll,
Dec 4 2022, 11:29:17 Cemetery Lights - Consumption (2022)
[youtube]2OjLE294i5k[/youtube]
(2) rominow, Veggr,
Dec 3 2022, 15:08:47 Nansarunai - Ruins Of The Moonlight Temple (2022)
[youtube]thtwjTvwipc[/youtube]
(1) Occultas,
Nov 26 2022, 15:37:38 Basarabian Hills (2) thenecromancer, WOLAND,
Nov 26 2022, 10:09:24 Messiah In The Abyss (3) kim666, WOLAND, yarrsuaa,
Nov 26 2022, 09:52:59 Oppressive Descent

Genre:
Black Metal
Lyrical Theme(s):
Suicide, Death, Loss, Depression
Origin:
United States (Portland, Oregon)
Formed In:
2008
Status:
Active
Current Line-Up:
Grond Nefarious - Everything (Death Fetishist, Malus Votum, Sangre De La Luna, Blut Der Nacht, Daemoniis Ad Noctum, SkullSplitter, Suspended By Hooks, Terminal Conquest, The Rain In Endless Fall, Wylve, Cryptic Edifice, Panzergod, Peste Umbrarum, Echoes Of Emptiness)

Discography:
Oppressive Descent - Death Was The Only Path We Knew [full-length] - 2016
Oppressive Descent - Archaic Convocation - The Demo Anthology [compilation] - 2017
Oppressive Descent - Throne Of Solitude [ep] - 2019
Oppressive Descent & Sangre De La Luna - Northwest Winds Of Hostility [split] - 2020
Oppressive Descent - Within The Horrific Vault [ep] - 2020
Oppressive Descent - Tihuta Pass [ep] - 2020
Oppressive Descent - Walpurgisnacht MMXX [single] - 2020
Oppressive Descent - Alchemy And War [full-length] - 2020
Oppressive Descent - Dismal Memoirs [compilation] - 2020
Oppressive Descent - Prepared For The Ground [ep] - 2020
Oppressive Descent - Nocte Venari [ep] - 2020
Oppressive Descent - Winter Grave [ep] - 2021
Oppressive Descent & HellGoat - Death Knell Of A Dying World [split] - 2021
Oppressive Descent & Elegiac - Elegiac/Oppressive Descent [split] - 2021
Oppressive Descent - The Watcher's Tower [ep] - 2021
Oppressive Descent - Astral Projections From Beyond The Grave [full-length] - 2021
Oppressive Descent & Luminous Veil & Till - AbattoirDust Vol.1 [split] - 2021
Oppressive Descent & Messiah In The Abyss - Skull Bifurcations Of Grim Disintegration [split] - 2021
Oppressive Descent - Spite Is My Scepter, Blood Is My Crown [full-length] - 2022

*****
Official site:
Encyclopaedia Metallum
(1) yarrsuaa,
Nov 26 2022, 09:32:01 Valac (3) kim666, WOLAND, yarrsuaa,
Nov 26 2022, 09:20:46 Grógaldr

Genre:
Black Metal
Lyrical Theme(s):
Satanism, Death, Ritualistic Sacrifice, Transcendence
Origin:
United States
Formed In:
2018
Status:
Active
Current Line-Up:
Zugarramurdi - Everything
Former/Past Member(s):
Bringer of Obsidian Death - Vocals (Obsidian Grave)

Discography:
Grógaldr - Malignant Channelings [demo] - 2019
Grógaldr - Deviant Masque Of The Wraith [demo] - 2019
Grógaldr & Kommodus - Howling Sanguine Triumph [split] - 2019
Grógaldr - Illness Unto The Womb Of Spirit [full-length] - 2020
Grógaldr - Disinterred Graves Of Saints [ep] - 2020
Grógaldr & Valac - Daggers Of Stygian Hatred [split] - 2020
Grógaldr - Grógaldr [compilation] - 2020
Grógaldr & Äkth Gánahëth - Grógaldr/Äkth Gánahëth [split] - 2021

*****
Official Site:
Encyclopaedia Metallum
(2) WOLAND, yarrsuaa,
Oct 15 2022, 12:04:28 Pyre - Ravenous Decease [ep] (2012)
Мой новый обзор в связи с переизданием знакового EP в дискографии команды:



Взаимодействие творческих сил порождает манифестацию свободной Воли и неповторимой Индивидуальности. Именно такое взаимодействие высшего порядка и продемонстрировали музыканты Pyre, переиздав на амбициозном московском лейбле Au-To-Dafe свой дебютный EP "Ravenous Decease", порождённый лучами незримого Света аккурат десять лет назад, в MMXII a.b. Действительно, это крайне кощунственный Экуменизм Стихий, без которого невозможно было бы проникнуть в сущность пространственного Пламени, ознаменовавшего без преувеличения богоподобный вклад всех причастных в отечественную экстремальную сцену.

Непрекращающаяся музыка Смерти, звучащая непрестанно в каждой частице погребённого в руинах внерелигиозного мира. Музыка, в которой сама Смерть трактуется как перерождение в более высокую фазу существования. Деструктивная энергия, высвобожденная в тех похоронных звуках, что достигли внутреннего слуха привнёсших вспыхивающую Изнутри сатанинскую силу. Образы, продиктованные злобным некротическим опытом, подобны трубному звуку Ангелов Страшного Суда, призывающих восстать и взойти на жертвенное Ложе Апокалиптического Пути. Незримая рука тёмных сущностей За-Предела направляет великие начинания Хаоса Зла, в котором преходящее суггестируется в неутихающую музыку Вечности. Постигая внутреннее пространство холодных надгробий, ветхих мостов над алтарями Безумия, мы обретаем Вовне осквернённые храмы и разрушенные обители, выстроенные в боли и агонии. Проповедники Непристойности, сумевшие достичь апогея Человеконенавистничества и явившие апофеоз своей разрушительной Тирании.

Музыкальное мастерство Pyre зиждется на осквернённых останках города Теней, впитавших в себя традиции всех прожитых дней: полная ненависти лирика о гниющей плоти и болезненной смерти, о тёмном ремесле и теистическом сатанизме, о причинах, по которым ущербное человечество корчится накануне последнего причастия, осознавая, что никакого спасения нет, – и не предвидится вовсе. Последовательность хроматизмов, вздымающихся из глубин Бездны и распространяющихся ядом по венам Внимающих. В каждом разъедающем риффе есть что-то достойное упоминания о славных нигилистических временах, когда небесные дали были прокляты и попраны, а церкви фальшивого иудейского бога обходили стороной. Концентрация тотальной безжалостной агрессии, травматизирующий порыв, достойный самого пресытившегося почитателя экстремальной музыки. Нервические гаммы Отчаяния, извивающиеся кошмарными змеями в чрезмерно мучительных ощущениях; пассажи бесконечного насилия и подлости, вдохновлённые жестокими гениями, стремящимися повсеместно своим искусством распространить порочное семя Ада. Фрагмент истории для тех, кто готов ощутить неожиданный импульс к разрушительным действиям. Реликт, вспыхнувший Торжеством Распада и мощью первородного Хаоса, сумевшего впоследствии обратить музыкантов Pyre в ещё более тёмные, грязные, неизведанные области музыкальной, шире – идеологической сферы, в которой оккультную Истину возможно применить в качестве Ключа, чтобы разомкнуть суть Мировоззрения, способного подвести к постижению Про-Знания: "Желание умереть – наша причина жить".

Пришло время совершить щедрое подношение воронкообразному пространству Тьмы! Издатель проделал потрясающую работу, пребывающую в герметичном бремени формы и содержания: дорогое полиграфическое оформление, выполненное на крафтовой матовой бумаге, матовый же слипкейс с тиснённым медной фольгой логотипом, великолепное литьё диска со снабжённым на рабочей поверхности текстом. Тот случай, когда стильное оформление радует глаз, а звуковые колебания Death Metal приносят всестороннее удовлетворение любителям качественной экстремальной музыки! Видно, что на всех этапах подготовки издания все причастные к нему вложили частичку своей души, получив на выходе реликт незаштампованной, парадоксальной, удивительной красоты! Действительно, индивидуальность не встроишь в паззлы, куда зачастую встроены все до единого. Au-To-Dafe доказывает это от релиза к релизу, не проецируя никоим образом разрешающую способность своего вкуса и эстетических воззрений на растиражированные массовые, с позволения сказать, пристрастия! Конечно, столетия сведут на нет любые материальные отношения и вожделения, но искры духовных сосредоточений, Реликты, порождённые не замутнёнными метафизическими Озарениями, не исчезнут в структуре Тёмных Чертогов попранной жизни, продолжая пульсировать по системам чувств, вновь и вновь пробуждая вибрации, взывающие к Творчеству, к постижению тайн Невиданного Мира...

Оригинал поста в соцсетях
(1) spazm,
Sep 30 2022, 10:09:43 Затемно - В Аду (2022)
ЦИТАТА(judaz @ Sep 30 2022, 06:17:07) *
Архивы битые, бандкамп дохлый, прям полный пасьянс.

У кого проблемы с архивом размещу свой по альтернативной ссылке:
Register


В шапке топика поменял ссылку на рабочую страницу Bandcamp.
(7) andeimon, Dark Sage, DMIYUR, ern1kkk, Evgen79, judaz, SaintVitus,
Sep 25 2022, 15:30:30 Veter Daemonaz - Muse Of The Damned (Муза Проклятых) (2022)
Сатанинское дуновение, насильственно вытесняющее любые страхи из надломленной души. Ветер, полосующий своими порывами За-Предел на границах Тьмы и Света, Воды и Пламени, в триединстве оскверняющих Ликов. Ветер, разжигающий Пламень прежней, внетелесной личности, чтобы в Триумф Нисхождения возможно было стать самим собой. Муза Проклятых, навеки поселившаяся в кошмарных Тоннелях, внеземных Порталах, вгрызшаяся в тело катакомб, извилистых, испещрённых криптами древнего Миропонимания и Мироощущения. Муза Творцов, ставшая их Твердью, а пристанище её - Колыбелью, пребывающей в Мареве, в котором возможно разглядеть лишь абрисы виселиц, осквернённых крестов, пугающих своей мертвенностью статуй и очертаниями тёмных теней. Слова, начертанные неведомой рукой, подобны Дверям, за которыми сокрыты Тайны, коснувшись которых Сознанием-Ключом, растворяешься в пределах внутреннего Эона. Музыка, которая упорно пробуждает чувство, что, будучи непосвящённым, не дано разделить с теми, Кто-на-Пути, радость от овладения Тайнами за-предельного фанатичного мира. Каждый гитарный перебор подобен стремительному Пламени, разгорающемуся Внутри, Шторму, который настигнет каждого, кто осмелится помешать Владыкам тёмных сердец. "Дух дышит, где хочет, и Голос~Ключ его слышишь, а не знаешь, Откуда приходит и Куда уходит: так бывает со всяким, рождённым от Духа" (Ин 3:8)
(1) vosmidesijatye,
Jun 8 2022, 19:28:49 Небокрай - Порт-Артур [ep] (2022)
Мой обзор на эту замечательную работу. Оригинал поста.

К сожалению, сегодняшняя повестка как на уровне общественных отношений, так и на "официальном" уровне предполагает филигранную и аккуратную работу с обтекаемым лексиконом, когда из этого самого лексикона осознанно-подчеркнуто вымывается понятие "русский" и соответствующие целеполагания "усмирения" на пути укрепления самосознания русского народа же. На фоне политических перемен историческая картина мира фрагментируется, становится подвижной и нелинейной, а вопрос отношения к прошлому и его интерпретации становится ведущим фактором, обуславливающим социальную жизнь. Процесс имитации и замещения достигает наивысшей точки, когда сама имитация становится тождественна реальности, в которой особое место отведено массе, пассивность которой в отношение вполне конкретных и крайне тревожащих вещей чревато трагедией. Именно подлинно творческое начало способно утвердить священное чувство единения с русской историей, совсем не случайно ставшей сегодня предметом острейшей идеологической борьбы.

Московской эскадре НЕБОКРАЙ предстоит провести слушателя по фортам, где шли ожесточённые бои, предлагая аудитории философское исследование мифологии войны в формате дорожек компакт-диска. Спустя век после войны здесь до сих лежат развалины, обломки бетона и застывшие искорёженные снарядами тяжёлые орудия защитников Порт-Артура, чья оборона стала одним из самых героических эпизодов русско-японской войны. В течение трёхсот двадцати девяти дней пятидесятитысячный гарнизон противостоял японской армии, численность которой доходила до двухсот тысяч солдат и офицеров. Испещрённый пулями и пропитанный шлейфом пороховых газов бастион, сталь стволов, пушечные лафеты – полноценные участники и свидетели великих событий начала XX века. Но сегодня они безгласны. Николаю "Князю" Гончарову сотоварищи предстоит приоткрыть завесу тайны над теми далекими событиями – воистину русский человек со взглядами, отражающимися в острие, в пале огненной бури среди вражьего множества нигилистов от истории, которые призваны "официальной" пропагандой лишить людей сопричастности национальной гордости. Новый MCD проекта – "Порт-Артур" – отправная точка отсюда и в Вечность среди грома пальбы в ощущении кровной связи времен; релиз чрезвычайно важный, своевременный и, без сомнения, сильный, отличающийся символичностью, глубиной и драматической подачей.

Одиннадцать месяцев жизнь портартуровцев представляла неустанную борьбу не только против яростного захватчика, но и против дальневосточной природы: "Ненастно и хмуро / Ярость уйми буйного шторма (раскатами накатывающегося на плёс); Ветер гудит, чёрная мгла / Вечности узел туго сплетён, Ярые волны рубит скала / Звёзд немота стынет огнём". Эстетическая задача музыкантов лихой эскадры заключается не просто в достоверной демонстрации знаковых эпизодов народной войны русских людей против японской орды, но в прославлении доблестных подвигов "храбрых воинов, презревших страх" – галереи родных лиц русских моряков, даурских и кубанских казаков.

Оборона Русской крепости Порт-Артур ознаменовалась настоящим проявлением доблести и военного долга простых солдат и командиров, лишённых тщеславия и самолюбования и готовых "пасть в бою за Русскую Честь". В глазах – отвага, в сердце – презрение к смерти и покой, разгорячённые боем лица сокрыты в полумраке, сизом ядовитом дыме. За хронометраж пластинки слушателю предстоит внять эмоциональной человеческой речи, слитой в горячности боя с рокотом артиллерии, пулемётов, миномётных орудий. Триумф воли, торжество надежды, коренящихся в человеческих сердцах, – надежды на себя, и на русского героя, что плечом к плечу к тебе на поле брани.

Музыкальным коллективам, существующим долгое время, довольно сложно избежать повторения старого звучания, не стать скучными. Однако НЕБОКРАЙ удаётся на протяжении почти двадцати лет создавать что-то новое и в то же время сохранять свой узнаваемый стиль – подобно Огненному Фениксу – символу постоянного развития, которое происходит по спирали с учётом прежнего опыта. Чувствуется, что "Порт-Артур" стал своеобразной проверкой творческих сил музыкантов и открыл новую страницу истории этого славного коллектива. Работа над MCD была проведена огромная и скрупулёзная. Пластинка получилась, с одной стороны, в меру тяжёлой и атмосферной за счёт объёмно звучащих хлестких, словно "шрамы на воде", гитарных риффов, доблестных, ритмически выверенных вокальных партий Николая, с другой – каждая композиция проникнута величественной энергетикой стойкости и героизма: ещё немного и НЕБОКРАЙ оставят слагание патриотических баллад под всполохи костров и поднимутся в штыковую атаку, в огонь, в картечный ад, где из пугающей черноты нарастает болезненный и нервный стрёкот смертоносных орудий. И здесь стоит отдать музыкантам должное: работа над акустическими партиями заглавной композиции пластинки проведена филигранно, подчёркнуты необходимые акценты, отражены всеобъемлюще-яростные эмоции. Воистину настоящий русский Heathen Black Metal – концептуальный, притягательный и новаторский. Война стала их плотью и кровью, они вобрали в себя её идеологию и сплавили сталью в своей крови.

На обложку диска музыканты поместили картину командного боя, в котором принимают участие флагманские корабли. "Липкий скрежет мин по бортам", оглушительные взрывы, свинцовый град, прицельные бомбардировки, сигнальные книги с привязанными грузами, уходящие в "кипящую бездну тёмной воды", флаги, прибитые к мачтам гвоздями, чтобы их не срывало взрывами, тлеющие вдали миноноски: "Вспышка – и вновь жадная тьма / Гнева раскат – навь пеленой". Под ураганным огнём матросы и офицеры, раненые и контуженные, вели прицельный огонь по противнику, заделывали пробоины, тушили пожары. А сейчас, потопив судно "желтолицых чертей", русские герои возвращаются в мутнеющую от крови бухту, "к новой земле издалека / наперекор ждущей беде", чтобы восстановить силы и снова пойти на прорыв. "Порт-Артур" – памятник настоящей русской, даже сказал бы точнее – белой энергии, важности и значительности смерти каждого защитника Отечества. Эта война – шире форпоста Российской Империи на Жёлтом море, она – на границах афферентного сознания, когда зияние образов несёт Трансцендентальность.

Сегодня сусальная идеология использует лицемерную и подложную модель, базирующуюся на идеях травестирующего патриотизма, равняя власть и страну, выставляя талантливых и разумных оппонентов врагами нации, по факту – десятилетиями уничтожая панславянскую культуру, историю и язык, культивируя псевдопатриотическое воспитание, под которым подразумевают, в первую очередь, индифферентность к себе. Кто противостоит этим "тенденциям" уже не будет записан в патриоты, а будет слыть изменником, предателем и коллаборационистом. Патриотизм – сокровенное чувство, находящееся глубоко в душе. О патриотизме судят не по словам, а по делам каждого человека. Патриот не тот, кто сам себя так называет, а тот, кого будут чтить таковым другие. Воспроизведя на материале доблестной эпохи первых десятилетий XX века "Ад" Данте, по кругам которого шествуют павшие герои "в войске русских богов", НЕБОКРАЙ записали ёмкую музыкальную эпитафию, в которой нашли отражение Честь и Верность, Правда и Белый Патриотизм... Русский Герой, давно ли шагал ты по низким горным хребтам к русской равнине или по безрадостным, изрытым снарядами окопам Мукдена или Цусима?.. Всё прошло! Ты восстал из пепла войны и разрушения, подобно Фениксу. Твоя Родiна! Моя Россiя!..

По вопросам приобретения физических носителей/трейда писать на электронные почты лейблов, занимавшихся изданием:

schwarzetod.cd@gmail.com
autodafeprod@yahoo.com
(2) Strego, Vitald,
May 27 2022, 19:58:10 Akathartos - Enlightenment By Darkness​ (Black Catharsis) (2022)


*Artist: Akathartos
*Album: Enlightenment By Darkness​ (Black Catharsis)
*Year: 2022
*Genre: Black Metal
*Country: Russian Federation
*Format: mp3@CBR320kbps
*Size: 85MB

Tracklist:
1. Exorcismus Spiritus Sancti (Divina Haeresim) (Intro) 01:22
2. Aeshma Daeva (The Blood Mace) 06:24
3. Emanations Of Death 04:26
4. The Unholy Trinity Divine 07:52
5. Impious Eucharist (Blood Of Virgin) 03:26
6. Eisheth Zenunim 05:27
7. The Great Beast Of Apocalypse 05:32
8. Exorcismus Spiritus Sancti (Divina Haeresim) II (Outro) 01:33
******************************
Total playing time: 36:02



[more=Extended info]Under the Sign of Garazel Productions,
May 22nd.

Свет Антрацитовой Луны будет обращён к Творцу, хранителю Творений Ситра Арха. Религиозный гнозис, в котором За-предельность - зияющая и жадная Бездна Абадонны.

Exclusively for metalarea![/more]

[more=Technical info]
Input File: 02 - Aeshma Daeva (The Blood Mace).mp3
Channels : 2
Sample Rate : 44100
Precision : 16-bit
Duration : 00:06:24.18 = 16942250 samples = 28813.4 CDDA sectors
File Size : 15.4M
Bit Rate : 320k
Sample Encoding: MPEG audio (layer I, II or III)
Comments :
Title=Aeshma Daeva (The Blood Mace)
Artist=Akathartos
Album=Enlightenment By Darkness​ (​Black Catharsis)
Tracknumber=02/08
Year=2022
Genre=Black Metal

[/more]

Register
(40) AlexSmith, alikkon, Altkiller, artscald, Branis, Bregon, Cadavru, Carcharoth, caro, Chasm, dermarsoran, eisigerwind, Hell_Is_Here, judaz, kefka, kim666, Krosis, lunaraurora, Mencae77, metaljosue, MMMMM, Occultas, older68, Olethros, Ostinato, robertho777, Sacrim, sacrut, Sanctus, sethurius, SilentNidhogg, stormhatt, supremo, Surt, Unknown, VALERY, varlam4, vasiljev_sergej, WOLAND, wreak,
May 22 2022, 11:25:45 Gauntlet Ring

Genre:
Black Metal
Lyrical Theme(s):
N/A
Origin:
United States (New York, New York)
Formed In:
2019
Status:
Active
Current Line-Up:
Taurus - Guitars, Vocals, Keyboards (Arbor, Fellwinter)
Mercenary - Drums, Bass (Fellwinter)

Discography:
Gauntlet Ring - Black Moon [demo] - 2020
Gauntlet Ring - Triumph Of The Lost Soul [demo] - 2020
Gauntlet Ring - Darkness Solace [demo] - 2020
Gauntlet Ring - As Far As Light Will Die [demo] - 2020
Gauntlet Ring - In The Shadow Of The Strigoi [demo] - 2020
Gauntlet Ring - Upon The Wings Of The Black Eagle [full-length] - 2021
Gauntlet Ring - May The Skies Rain Blood Upon The Earth [demo] - 2021
Gauntlet Ring - Tyrannical Bloodlust [full-length] - 2022

*****
Official Site:
Encyclopaedia Metallum
(3) crevardo, thenecromancer, varlam4,
May 1 2022, 10:37:25 Kirk Hammett - Portals [ep] (2022)
Kill Hammett! за такое убожество.
(1) Jahmephisto,
Apr 16 2022, 11:12:29 Niteris & Крюкокрест - Niteris/Крюкокрест [split] (2022)


*Artist: Niteris & Крюкокрест
*Album: Niteris/Крюкокрест [split]
*Year: 2022
*Genre: Raw Black Metal | Raw Black Metal
*Country: Bosnia and Herzegovina | Russian Federation
*Format: mp3@CBR320kbps
*Size: 88MB

Tracklist:
Niteris:
1. Čežnje plamenoga srca 11:11
2. U sjaju oluje 08:14
Крюкокрест:
3. Игра в прятки 04:28
4. За ваш упокой 03:52
5. Кресты и венки 06:02
6. У зари-то у зореньки 04:25
******************************
Total playing time: 38:12



[more=Extended info]New Era Productions

CD limited to 200. Also available on tape-format.

Не осмотрелись: обложка - трибьют ильдярновскому Minnesjord.[/more]

[more=Technical info]
Input File: 02 - U Sjaju Oluje.mp3
Channels : 2
Sample Rate : 44100
Precision : 16-bit
Duration : 00:08:14.08 = 21788972 samples = 37056.1 CDDA sectors
File Size : 19.8M
Bit Rate : 320k
Sample Encoding: MPEG audio (layer I, II or III)
Comments :
Title=U Sjaju Oluje
Artist=Niteris
Album=Niteris/Крюкокрест
Tracknumber=02/06
Year=2022
Genre=Black Metal

[/more]

Register
(39) abob, acerbus, Alexis The Best, alikkon, artscald, Bekkerev, Boozer, caro, dermarsoran, Emhyr var Emreis, Hell_Is_Here, Ildjarn, INDARKNESS, judaz, kefka, kim666, Lanceatum, LVXXVL, maringlen, mondblut, murian, Nascutmort, Ostinato, rammmirez, Razorbladeswaltz, sacrut, SilentNidhogg, smes, stormhatt, supremo, umnaxtet, VALERY, varlam4, vasiljev_sergej, Velmi, Wail, WOLAND, wreak, yuratroll,
Apr 11 2022, 11:39:27 Пламень - Магия Крови (2022)
headcrab.png

(15) acerbus, DarkHorde, DMIYUR, Evjenne, Forest Silence, GorAtheist, legion01, Mencae77, Nerevar, princeshr, Qliphoth, Razorbladeswaltz, sacrut, spammer666, WOLAND,
Apr 11 2022, 11:15:45 Пламень - Магия Крови (2022)


*Artist: Пламень
*Album: Магия Крови
*Year: 2022
*Genre: Black Metal
*Country: Russian Federation
*Format: mp3@CBR320kbps
*Size: 66MB

Tracklist:
1. Внутри ΑΩ 04:25
2. Ритуал 06:05
3. Пророчество 06:15
4. Магия Крови 07:26
5. Дар 03:45
******************************
Total playing time: 27:56



[more=Extended info]CD-Rip

Творение Извечных, подчинивших Пламень, заветными речами предначертавших Величие Грядущего Гнева. Источник Тьмы требует непрестанного Осквернения, нечестивого источения Потоков Зла. Пять заклинаний – фанатично-исступлённый пакт с Господом Сатаной, чья Плоть живёт Вечно Внутри Тех, кто встал на Путь. Возврата нет, профанная жизнь оскудела и пресеклась – Solve et Coagula Навечно.

Издание для посвящённых в виде шестиполосного глянцевого A5 digi-cd. Сами знаете, где и у кого брать![/more]

[more=Technical info]
Input File: 04. Magic ov Blood.wav
Channels : 2
Sample Rate : 44100
Precision : 16-bit
Duration : 00:07:25.82 = 19660800 samples = 33436.7 CDDA sectors
File Size : 78.6M
Bit Rate : 1.41M
Sample Encoding: 16-bit Signed Integer PCM

[/more]

Register
(103) -=Hass=-, acerbus, AlexSmith, alikkon, andeimon, Aresson, artscald, BERZERK, bloodwind, Boozer, Branis, Brutal, caro, Chasm, Constantinus I, CRUNCH, DarkHorde, deadterror, deadwater, Deathconnect, Der Sturmer, DMIYUR, dsword, eisigerwind, Emhyr var Emreis, Evilded, Evjenne, Farfarello, Forest Silence, Fryz, Golodomor, GorAtheist, HMHamster, Infidel, judaz, kefka, kim666, KKK1488, legion01, Lord Noctua, lunaraurora, Lux, Mencae77, metaljosue, milosdjor, mirotvorets, mizantrophist, Moonshtook, Morgoth666, MorsPulchra, Nerevar, nsk2008, nsmetalhead, oldvarg, Olethros, Ostinato, pahanbos, Pentium.Disel, Premature_Devotion, princeshr, Qliphoth, rabindranad, RADeus, rammstein888, Razorbladeswaltz, RENыч, Requiescat, robertho777, rominow, rydra88, sacrut, sandr666, satanist666, scorn33, Scuns, sethurius, Shadechaser, SilentNidhogg, smes, smysl, sok, stormhatt, supremo, Surt, Taakeferd, thenecromancer, varlam4, vasiljev_sergej, Velmi, Victim of fate, Vitald, vosmidesijatye, vov7609, Wail, wanderer73, WOLAND, wreak, Xor, xska, yuratroll, ZambuL, Авел, Сварог Барг,
Mar 28 2022, 20:02:00 Skaur - Reis Te Haelvete (2021)
Отличный альбом, не лишённый мелодичности, языческих влияний, с замысловатыми песенными структурами. Традиционная скандинавская магия, исполненная с экспрессивностью и эпичностью. Недавно приобрёл данный CD в фонотеку.
(8) DarkHorde, Evilded, pfk505, sacrvm_bellvm, sethurius, sok, Vardlokkur, WOLAND,
Feb 22 2022, 19:47:00 Misanthropic Art - Last Hunt (2022)


*Artist: Misanthropic Art
*Album: Last Hunt
*Year: 2022
*Genre: Black Metal
*Country: Russian Federation
*Format: mp3@CBR320kbps
*Size: 93MB

Tracklist:
1. Ghosts of Humanity / Призраки человечества 05:41
2. Wing of Seraph / Крыло серафима 06:09
3. Story of the First Human's Murder / История убийства первого человека 07:25
4. Wandering Time / Блуждающее время 06:45
5. Venomous Smog / Ядовитый смог 05:09
6. Last Hunt / Последняя охота 08:17
******************************
Total playing time: 39:26




[more=Extended info]Sigillvm Tenebrae Records, February 22th.

Эксклюзив для портала!

Пустота, угрожающая своей глубиной. В познании себя – катарсический опыт переживания Отчаяния. Отчаяние – и холодная койка реабилитационного центра, и "очертания птиц в антрацитовом небе". Black Metal, разъедающий, поглощающий и отторгающий измождённое сознание, подобно химии в венах. Последняя охота на неприкаянных призраков человечества объявлена! Чтобы даровать человеку счастье и свободу, ему необходимо преподнести фурик и шприц. Действуй, о Великий Жизнодавец и Человеколюбец!

Настойчиво трясите с венгра физносители![/more]

[more=Technical info]
Input File: 06 - Last Hunt.mp3
Channels : 2
Sample Rate : 44100
Precision : 16-bit
Duration : 00:08:17.95 = 21959595 samples = 37346.2 CDDA sectors
File Size : 19.9M
Bit Rate : 320k
Sample Encoding: MPEG audio (layer I, II or III)
Comments :
Title=Last Hunt
Artist=Misanthropic Art
Album=Last Hunt
Tracknumber=06/06
Year=2022
Genre=Black Metal

[/more]

Register
(138) -=Hass=-, acerbus, aimtoknow, AlexSmith, alikkon, andeimon, Aresson, artscald, autumnwood, BERZERK, Blackner, blacky66, Boozer, Branis, Brutal, Carcharoth, caro, cesar, Chasm, comradEnemy, Constantinus I, CRUNCH, ctulhudagon, Darkwood, deadpyhto, deadterror, deadwater, Deathconnect, Demonologist, Der Sturmer, Dirt_ORFEY, DMIYUR, doomTemplar, dsword, Emhyr var Emreis, ent404, Evilded, Evjenne, Forest Silence, Froze, Fryz, gav-gafi, Golodomor, GorAtheist, Guns, gusto24191, hellbibber, Hell_Is_Here, Hexer, HMHamster, Ignativs, igore2911, Ildjarn, Impaled, Indamage, Infidel, judaz, kauyumari, Kazoth, kefka, kim666, Kwaad, Legacy100, legion01, LEGION69, lestllk, Lord Noctua, lunaraurora, Lux, Melusinara, Mencae77, metaljosue, mirotvorets, Misanthrope@, Mist13Signifier, mizantrophist, MMMMM, Moonshtook, morbidangelo, MorsPulchra, nadin85, Necromag, Nerevar, nsk2008, nsmetalhead, oldvarg, Olethros, Ostinato, Pentium.Disel, Phlebotomized, Premature_Devotion, princeshr, pwoods, Qliphoth, rabindranad, rammstein888, Razorbladeswaltz, recber, RENыч, Reverend, robertho777, rominow, RUSP73, rydra88, sacrut, SadistikSlayer, SaintVitus, satanist666, scorn33, Scuns, sethurius, Shadechaser, SilentNidhogg, Skog1349, smysl, stormhatt, supremo, Surt, technoboy69, thenecromancer, VALERY, Vardlokkur, varlam4, vasiljev_sergej, Victim of fate, Vidyadharov, Vitald, vov7609, Waam, WOLAND, wreak, Xor, xska, yarrsuaa, yuratroll, ZambuL, Zenial, Авел,
Feb 18 2022, 21:56:11 Nokturnal Mortum - До Лунарної Поезії (2022)
Тема вычищена. Предупреждаю на будущее, что любые комментарии о "заблудших братьях" и "народе-нацисте" будут удаляться, а авторы подобных комментариев будут отправлены в длительный бан за нарушение правил портала. Обсуждаем прекрасную во всех отношениях музыку! Как-нибудь без "экспертных" мнений господ диванных экспертов обойдёмся...
(24) Alpha_Prime, Ash_1980, damage666, Emm Human, Exorcist, Faust_Vulkan_16, Hexer, karaczun, kazulapka, Lucifer, mardak666, Moonshtook, Nemetsua, Old Vyaine, Paradayz, plfan93, SAPOGi, Starseeker, thenecromancer, Thiarnan, Un4given, WOLAND, yuratroll, Луч,
Jan 25 2022, 16:41:21 Owls Woods Graves - Secret Spies Of The Horned Patrician (2022)


*Artist: Owls Woods Graves
*Album: Secret Spies Of The Horned Patrician
*Year: 2022
*Genre: Black Metal/Punk
*Country: Poland
*Format: mp3@CBR320kbps
*Size: 77MB

Tracklist:
1. The Entity 03:23
2. Return of Satan 03:23
3. Rabies 01:41
4. Obscure Monastery 03:50
5. Idzie Diabeł 03:48
6. Bats in the Belfry 04:10
7. Antichristian Hooligan 03:42
8. At the Crossroads 02:58
9. Zobaczysz 04:07
******************************
Total playing time: 31:02



[more=Extended info]Malignant Voices - MV40,
January 25th.

Thanks to Daale[/more]

[more=Technical info]
Input File: OWLS WOODS GRAVES - Secret Spies of the Horned Patrician - 02 Return of Satan.mp3
Channels : 2
Sample Rate : 44100
Precision : 16-bit
Duration : 00:03:23.56 = 8976864 samples = 15266.8 CDDA sectors
File Size : 8.39M
Bit Rate : 330k
Sample Encoding: MPEG audio (layer I, II or III)
Comments :
Title=Return of Satan
Artist=Owls Woods Graves
Album=Secret Spies of the Horned Patrician
Tracknumber=2
Year=2022

[/more]

Register
(83) aleon, AlexSmith, alikkon, Antichrist, artscald, Ash_1980, BandR75, Black Cat, Boozer, Bzth, Carcharoth, caro, cenzored, Chasm, Daale, dan22, Dark Sage, dcatagua, deadterror, Emhyr var Emreis, EndlessDrone, eternald, Fallen Soul, Forest Silence, gena, Golodomor, grimoir, gusto24191, HMHamster, Ignativs, IncendiaryMight, judaz, kefka, kim666, Lamby90, MadCarrot, maochen, Melusinara, Mencae77, metala, Metalass, metaljosue, Moonshtook, multizwilling, nadin85, nemx, nsk2008, Oldskulthrasher, oldvarg, Olethros, Orkkh, Ostinato, p4B10, Pentium.Disel, postal67, RENыч, Reverend, rimfrost, robertho777, RUDACHUR, sabr, SaintVitus, Samaritianin, satanist666, scorpiothekiller, Scuns, SilentNidhogg, sksxxx, smes, spazm, stormhatt, supremo, Surt, Taakeferd, VALERY, varlam4, vasiljev_sergej, Vintersorg, Vitald, wgs73, wreak, WX419, zhol,
Jan 20 2022, 12:54:15 Trest - Ordalium (2019)
[youtube]XXJ0rbxPSP8[/youtube]
(1) Occultas,
Jan 18 2022, 19:50:10 Veter Daemonaz & Lashblood - Храм [split] (2021)


*Artist: Veter Daemonaz & Lashblood
*Album: Храм [split]
*Year: 2021
*Genre: Black Metal | Black Metal
*Country: Russian Federation | Russian Federation
*Format: mp3@CBR320kbps
*Size: 97MB

Tracklist:
Veter Daemonaz:
1. Возрадуйся / Ибо я видел 06:05
2. Пожары истин 05:03
3. В сердцах падших ангелов 05:36
Lashblood:
4. Крысиная проповедь 12:06
5. Пустынные крысы 07:03
6. Мерцающий закат 05:14
******************************
Total playing time: 41:07




[more=Extended info]S.N.D. Production – SND23

Истинный, Предвечный Храм Тёмного Искусства, в котором всё божественно, вечно и свободно. Застывшие вещи отражаются Внутри замкнутого круга в ознаменование Откровений, продиктованных разомкнутыми устами Творцов! Лишь то, что божественно по своей сути, исторгает Полноту Бытия. Они - из Них.

CD-Rip[/more]

[more=Technical info]
Input File: 01 - Возрадуйся - Ибо я видел.mp3
Channels : 2
Sample Rate : 44100
Precision : 16-bit
Duration : 00:06:05.58 = 16121946 samples = 27418.3 CDDA sectors
File Size : 14.6M
Bit Rate : 320k
Sample Encoding: MPEG audio (layer I, II or III)
Comments :
Title=Возрадуйся / Ибо я видел
Artist=Veter Daemonaz
Album=Храм
Tracknumber=01/06
Year=2021
Genre=Black Metal

[/more]

Register
(84) acerbus, aimtoknow, andeimon, artscald, Ash_1980, beast666, Bekkerev, BERZERK, Boozer, Branis, Bulldozzzzzzer, Carcharoth, caro, Chasm, Constantinus I, CRUNCH, Daemoniacus, dasreichss, deadterror, Emhyr var Emreis, ent404, Evilded, Forest Silence, Fryz, Golodomor, GorAtheist, Hefir, Hell_Is_Here, Hexer, Ildjarn, Infidel, infiltrator, isvili, judaz, Kazoth, kefka, kim666, Krosis, krotovich, Lanceatum, lestllk, lopuh21, lordbathor, maringlen, Mencae77, Metalass, mirotvorets, Mist13Signifier, Moonshtook, murian, Necromag, Nerevar, Occultas, Orkkh, Ostinato, PossessedMg412, Premature_Devotion, rabindranad, Raw1488, Razorbladeswaltz, recber, RENыч, sacrut, SaintVitus, satanist666, scorn33, SilentNidhogg, smes, smysl, stormhatt, supremo, technoboy69, the_cleanser, VALERY, varlam4, vasiljev_sergej, VerminGhost, vovan4ic, wreak, Xor, xska, yuratroll, ZambuL, Авел,
Jan 15 2022, 20:02:41 Scorpions - Rock Believer [single] (2022)
У них же уже был прощальный тур? Вроде дедки на пенсию отправились, не?
В любом случае - осуждаю... 23.gif
(1) paganheart,

284 Pages V   1 2 3 > » 
- Lo-Fi Version Support form
Copyrights and abuse reports form
Time is now: 31st January 2023 - 18:24:12