Welcome Guest ( Log In | Register )

История благодарностей участнику Абигор ::: Спасибо сказали: 124222 раз(а)
Дата поста: В теме: За сообщение: Спасибо сказали:
Mar 18 2024, 21:32:30 Satanic Ritual Abuse - Ritual II (2023)


*Artist: Satanic Ritual Abuse
*Album: Ritual II
*Year: 2023
*Genre: Black/Death Metal
*Country: Russian Federation
*Format: mp3@CBR320kbps
*Size: 105MB

Tracklist:
1. The Mournful Lament For Peter III 01:47
2. The Song Of The Ascension 02:45
3. Followers Of The Valesians 03:51
4. In The Spiritual Fervor 02:41
5. Wild Savage Fiends 03:37
6. The Prophecy 02:44
7. The Dignity Of The Emasculated 02:35
8. How The Apostles Sold Our Father 02:30
9. Preparation For Execution 02:27
10. I Raise My Sickle! 02:10
11. Rite Of The First Seal 02:11
12. Ahead The Heavenly Throne 13:14
13. Untitled 02:15
******************************
Total playing time: 44:47

[more=Extended info]CD-Rip

Entropy Records[/more]

[more=Technical info]
Input File: 06 - The Prophecy.mp3
Channels : 2
Sample Rate : 44100
Precision : 16-bit
Duration : 00:02:43.66 = 7217538 samples = 12274.7 CDDA sectors
File Size : 6.55M
Bit Rate : 320k
Sample Encoding: MPEG audio (layer I, II or III)
Comments :
Title=06 - The Prophecy
Artist=Satanic Ritual Abuse
Album=Ritual II
Tracknumber=6
Year=2024
Genre=Black Metal

[/more]

Register
(20) abob, AlexSmith, alikkon, Altkiller, artscald, BFM, Boozer, DarkHorde, dermarsoran, infozahist, kefka, lunaraurora, mishasha, mizantrophist, Rodin, sacrut, supremo, tireheb, VALERY, vasiljev_sergej,
Mar 1 2024, 21:30:39 Езическо Обсебване - Вечен Гроб... Забравен [demo] (2006)
Отражение -
Register
(4) Raw1488, thenecromancer, varlam4, vasiljev_sergej,
Dec 23 2023, 18:17:19 Aūkels - Meddjan Sklāit Ten (2023)
Added links by Velmi
(1) Occultas,
Oct 1 2023, 14:53:23 Новости Black-направления
Треклист грядущего альбома:

1. Halt The Wheel Of Timeless Change
2. Soldaten Satans
3. Feasting On The Prophet's Blood
4. Extermination Angel
5. Cult Of Elder Chaos
6. Burning Hell
7. Forniotrs Weltenreise
8. Morning Star Anthropophagia

Параллельно с новым полноформатом ABIGOR готовят переиздание EP "Apocalypse", вышедшего в 1997 году.
(12) acerbus, Antichrist, Bzth, Chasm, Emm Human, Hexenmeister, Infidel, Kurhan, MAPhilosopher, Nerevar, Occultas, thenecromancer,
Sep 21 2023, 05:58:32 Lacrau - Axioma (2023)


*Artist: Lacrau
*Album: Axioma
*Year: 2023
*Genre: Depressive Black/Doom Metal
*Country: Portugal
*Format: mp3@CBR320kbps
*Size: 95MB

Tracklist:
1. Premissa 05:01
2. Doença 06:22
3. Decl​í​nio 07:18
4. Queda 06:34
5. Veneno 06:37
6. Conclusão 06:07
******************************
Total playing time: 37:59





[more=Extended info]Conceptual album inspired by the legendary Scandinavian senicide ritual.[/more]

[more=Technical info]
Input File: Lacrau - 04 - Queda.mp3
Channels : 2
Sample Rate : 44100
Precision : 16-bit
Duration : 00:06:34.63 = 17403183 samples = 29597.2 CDDA sectors
File Size : 16.9M
Bit Rate : 344k
Sample Encoding: MPEG audio (layer I, II or III)
Comments :
Title=Queda
Artist=Lacrau
Album=Axioma
Tracknumber=4
Year=2023
Genre=Depressive Black/Doom Metal

[/more]

Register
(24) aleon, AlexSmith, Altkiller, artscald, Daale, Grev, hammer, heavymetalhead, kefka, Mencae77, metala, Night, Olethros, Ostinato, respect, Russ, SatanicPanzer, Sulphuric, supremo, VALERY, vasiljev_sergej, vlad74, wreak, Yorker,
Sep 18 2023, 07:48:15 Black Goat - Demogorgon The Inmost Darkness Itself (2023)


*Artist: Black Goat
*Album: Demogorgon The Inmost Darkness Itself
*Year: 2023
*Genre: Black Metal
*Country: Russian Federation
*Format: mp3@CBR320kbps
*Size: 85MB

Tracklist:
1. Погребальный Зов 01:10
2. Demogorgon 03:39
3. Possession Of The Necromancer 04:08
4. From Beyond 03:33
5. Reaper Of The Fallen Souls 04:15
6. Satanic Unholiness 03:29
7. Impious Communion 05:54
8. Tormentor I 03:09
9. Cyclical Death (My Own Path To Carcosa) 06:48
******************************
Total playing time: 36:05



[more=Extended info]KVLT![/more]

[more=Technical info]
Input File: 06 Satanic Unholiness.mp3
Channels : 2
Sample Rate : 44100
Precision : 16-bit
Duration : 00:03:29.46 = 9237362 samples = 15709.8 CDDA sectors
File Size : 8.38M
Bit Rate : 320k
Sample Encoding: MPEG audio (layer I, II or III)
Comments :
Title=Satanic Unholiness
Artist=Black Goat
Album=Demogorgon
Tracknumber=6
Year=2023
Genre=Black Metal

[/more]

Register
(40) AlexSmith, alikkon, Altkiller, artscald, Boozer, Chasm, dermarsoran, Evrom, goatkvlt, Grev, greyhound, Hell_Is_Here, judaz, kefka, kim666, metaljosue, mishasha, Mist13Signifier, MMMMM, Moonshtook, obituarydark, Occultas, p4B10, Pinhead666, robertho777, RUSP73, sacrut, SaintVitus, satanist666, SilentNidhogg, Soulgrinder, supremo, terron, VALERY, varlam4, vasiljev_sergej, VerminGhost, vovenom, Wail, wreak,
Sep 16 2023, 05:40:02 Dprize - Под Крылом Земли (2023)
Лучше этот альбом послушать:

Затемно - В Аду (2022)

Black Metal With Accordion
(5) Chasm, Dante_D, Occultas, Sulphuric, Veggr,
Aug 23 2023, 21:18:30 Endstille - DetoNation (2023)
Mirrors:
Register
(15) AlexSmith, Ballisargon, blackestdesire, Femto, Gonzalortiz, Gylve, Lord Noctua, mardak666, Ostinato, rickzammuto, RUDACHUR, SS2998, Surt, VALERY, vasiljev_sergej,
Aug 22 2023, 08:51:53 Blut Aus Nord - Disharmonium - Nahab (2023)
Mirrors, same properties:
Register


[youtube]eya7OAqb02g[/youtube]
(24) 666days, alikkon, Altkiller, BandR75, Bannanik, Biomechanik, doomTemplar, ENDSMOUTH, Femto, flep, Gylve, lucifix, Moonshtook, Narasimha, nemx, Occultas, Orgasmik, p4B10, vasiljev_sergej, VerminGhost, Weikai, Xor, yuratroll, Авел,
Jul 30 2023, 20:38:10 Marduk - Heaven Shall Burn... When We Are Gathered (1996)
FLAC-Rip, 320 kbps + Scans
Register
(4) ErickLeoni, Occultas, stumpheavyrock, thenecromancer,
Jul 20 2023, 13:08:24 Sutekh Hexen & Funerary Call - P​:​R​:​I​:​S​:​M [collaboration] (2023)
Added links by greyhound
(1) Occultas,
May 27 2023, 11:05:34 Kasturn - Demonstration I [demo] (2021)
Mirror:
Register
(1) rimfrost,
May 27 2023, 11:03:32 Kasturn - Kasturn (2022)
Mirror:
Register
(1) rimfrost,
May 27 2023, 11:02:13 Maléfices - Sous L'Égide Du Dragon Blanc [compilation] (2015)
Mirror:
Register
(3) rimfrost, Sergey, thenecromancer,
May 27 2023, 10:59:42 Circle Of Wolves - Black Powder And Ravens Blood (2023)
Mirror
Register
(2) ent404, rimfrost,
May 18 2023, 18:03:45 Pale Mist - From A Cruel Obscurity [demo] (2009)
Перезалил.
Register
(4) kimkayoung, LVXXVL, thenecromancer, Wail,
May 12 2023, 15:49:32 Мор - Стужа (2023)
Разделённая на треки версия:
Register
(23) affwizard, andeimon, Boozer, Brutal, DMIYUR, ent404, Fryz, GANCH.Ru, Maestrovs, Moonshtook, oldvarg, Premature_Devotion, Proteus_666, Qliphoth, Razorbladeswaltz, recber, sacrut, satanist666, smysl, VALERY, varlam4, Vitald, Wail,
May 12 2023, 05:14:14 Auld Ridge - Folklore From Further Out (2023)


*Artist: Auld Ridge
*Album: Folklore From Further Out
*Year: 2023
*Genre: Atmospheric Black Metal
*Country: France
*Format: mp3@CBR320kbps
*Size: 111MB

Tracklist:
1. A Pact with Kólumkilli
2. Titchfield Abbey
3. The Sound of the Fyrth Begins to Creep
4. Auld Spurgin Hide
5. An Omen of Death Heralds the Season
6. Tornedalen
7. Where Night's Black Bird Her Sad Infamy Sings (John Dowland cover)
******************************
Total playing time: 47:01

[more=Technical info]
Input File: 01 A Pact with Kólumkilli.mp3
Channels : 2
Sample Rate : 44100
Precision : 16-bit
Duration : 00:08:33.47 = 22643807 samples = 38509.9 CDDA sectors
File Size : 20.5M
Bit Rate : 320k
Sample Encoding: MPEG audio (layer I, II or III)
Comments :
Title=A Pact with Kólumkilli
Artist=Auld Ridge
Album=Folklore from Further Out
Tracknumber=1/7
Genre=Black Metal
Discnumber=1/1

[/more]

Register
(41) AlexHellhammer1602, AlexSmith, alikkon, Altkiller, artscald, Boozer, Condehate, fallen, Grev, Hell_Is_Here, Hexenmeister, kefka, kim666, kimkayoung, madera, metala, Mogozoz, Moonshtook, murian, Narasimha, nemx, Ostinato, Premature_Devotion, randumbum, robertho777, Shadechaser, SilentNidhogg, smysl, Soulgrinder, squall8fr, supremo, suseka, vader9, VALERY, varlam4, vasiljev_sergej, VerminGhost, vovenom, Wotanwatch, wreak, Yorker,
May 12 2023, 04:59:40 Moon Oracle - Ophidian Glare (2023)


*Artist: Moon Oracle
*Album: Ophidian Glare
*Year: 2023
*Genre: Black Metal
*Country: Finland
*Format: mp3@CBR320kbps
*Size: 71MB

Tracklist:
1. The Numinous Gate Opens 04:44
2. A Vision in the Mansion 03:50
3. Nethereal Axe 02:43
4. Serpent's Word 03:47
5. Widdersyns – Against the Current 04:18
6. Abysmal Crimson Desert 10:57
******************************
Total playing time: 30:19



[more=Extended info]Signal Rex, April 13th[/more]

[more=Technical info]
Input File: 03 Nethereal Axe.mp3
Channels : 2
Sample Rate : 44100
Precision : 16-bit
Duration : 00:02:43.80 = 7223404 samples = 12284.7 CDDA sectors
File Size : 6.55M
Bit Rate : 320k
Sample Encoding: MPEG audio (layer I, II or III)
Comments :
Title=Nethereal Axe
Artist=Moon Oracle
Album=Ophidian Glare
Tracknumber=3/6
Genre=Black Metal
Discnumber=1/1

[/more]

Register
(27) AlexSmith, Altkiller, artscald, Boozer, Carcharoth, Condehate, DeathDragon, egortitov, ent404, Grev, Hell_Is_Here, kefka, kim666, kimkayoung, Moonshtook, Morgoth, nemx, sacrut, SilentNidhogg, smysl, supremo, suseka, VALERY, vasiljev_sergej, vovenom, Wail, wreak,
May 11 2023, 20:49:42 Hadopelagyal - Nereidean Seismic End (2022)
Reuploaded for now.
Register
(3) Antichrist, Beyond, carla667,
Mar 29 2023, 21:27:37 Downcross

Genre(s):
Black Metal
Lyrical Theme(s):
Satanism
Origin:
Belarus (Minsk)
Formed In:
2014
Status:
Active
Current line-up:
Ldzmr - Vocals, Drums (Atruta)
Dzmtr - Guitars (Atruta)
Former/Past Member(s):
Paul Lapkowski - Guitars, Bass (Grimentity, Ominous Scriptures, Relics Of Humanity, Stickoxydal)

Discography:
Downcross - Promo 2015 [demo] - 2015
Downcross - Mysteries Of Left Path [full-length] - 2019
Downcross - What Light Covers Not [full-length] - 2019
Downcross - Current Towards End [ep] - 2020
Downcross - To The Last Sunset At The Gates Of Collapse [full-length] - 2021
Downcross - Hexapoda Triumph [full-length] - 2022
Downcross - Invertebrata [full-length] - 2023

*****
Official site:
Encyclopaedia Metallum
(2) Facsimile, satanist666,
Mar 25 2023, 18:17:21 Lamp Of Murmuur (3) kimkayoung, satanist666, varlam4,
Mar 19 2023, 17:49:54 Wintermoon - Old Spirit Of Polar Night [compilation] (2018)
Reuploaded for now.
Register
(1) AceQuorthon,
Feb 26 2023, 10:04:43 Óreiða - N​ó​ttin (2022)
Added links by kefka
(1) kefka,
Feb 5 2023, 14:51:16 Goatblood - Supreme Triumph Of Evil [ep] (2021)
Отражение -
Register
(2) julianotidre, vasiljev_sergej,

285 Pages V   1 2 3 > » 
- Lo-Fi Version Support form
Copyrights and abuse reports form
Time is now: 14th April 2024 - 19:19:27