Welcome Guest ( Log In | Register )

История благодарностей участнику Абигор ::: Спасибо сказали: 119371 раз(а)
Дата поста: В теме: За сообщение: Спасибо сказали:
Oct 17 2021, 12:55:07 XVII - Alcohol And Loneliness (2021)


*Artist: XVII
*Album: Alcohol And Loneliness
*Year: 2021
*Genre: Depressive Black Metal
*Country: Russian Federation
*Format: mp3@CBR320kbps
*Size: 123MB

Tracklist:
1. You Are Alone 06:12
2. I Am Begging! 03:03
3. Tears Of My Suicide 04:29
4. Alcohol & Loneliness 03:03
5. Broken Dreams 04:17
6. Fall From The Roof 07:59
7. Never 07:35
8. Instinct For Self-Destruction 03:52
9. Y.H.M.I.H.Y.W.A.B.B.H. 09:41
******************************
Total playing time: 50:11

[more=Extended info]Tape-Rip + Scans

Limited to 15 hand-numbered copies.[/more]

[more=Technical info]
Input File: 06 - Fall From The Roof.mp3
Channels : 2
Sample Rate : 44100
Precision : 16-bit
Duration : 00:07:59.58 = 21149566 samples = 35968.6 CDDA sectors
File Size : 19.2M
Bit Rate : 320k
Sample Encoding: MPEG audio (layer I, II or III)
Comments :
Title=Fall From The Roof
Artist=XVII
Album=Alcohol And Loneliness
Tracknumber=06/09
Year=2021
Genre=Black Metal

[/more]

Register
(16) aleon, AlexSmith, artscald, Carcharoth, caro, fallen, kefka, kim666, Mencae77, metala, Olethros, robertho777, stormhatt, Taakeferd, thenecromancer, vasiljev_sergej,
Sep 10 2021, 20:09:42 Lykta - Cold Winds Of Famine... (2021)


*Artist: Lykta
*Album: Cold Winds Of Famine...
*Year: 2021
*Genre: Black Metal
*Country: Belgium | Sweden
*Format: mp3@CBR320kbps
*Size: 90MB

Tracklist:
1. Through Cold Winds Of Famine 06:22
2. Crawling Through Memories Of Dust 07:37
3. Empty Faces Of My Damnation 05:12
4. In My Dreams 07:35
5. Reflections Of The Undead Mirrors 02:43
6. Beyond The Face Of Ruins 08:14
******************************
Total playing time: 37:43



[more=Extended info]Swartadauþuz - Vocals, Guitars, Bass
Déhà - Guitars, Bass, Drums[/more]

[more=Technical info]
Input File: 05 - Reflections Of The Undead Mirrors.mp3
Channels : 2
Sample Rate : 44100
Precision : 16-bit
Duration : 00:02:42.67 = 7173615 samples = 12200 CDDA sectors
File Size : 6.51M
Bit Rate : 320k
Sample Encoding: MPEG audio (layer I, II or III)
Comments :
Title=Reflections Of The Undead Mirrors
Artist=Lykta
Album=Cold Winds Of Famine
Tracknumber=05/06
Year=2021
Genre=Black Metal

[/more]

Register
(45) acerbus, aleon, AlexSmith, alikkon, caro, dermarsoran, Forest Silence, gena, grimoir, Hell_Is_Here, Ildjarn, kefka, kim666, korovakaska, Krosis, M0ns1gn0r, madera, Marek, maringlen, Mencae77, MMMMM, NachtWulf, nemx, Olethros, Rikardo90, rimfrost, robertho777, sabr, SaintVitus, satanist666, Skog1349, smes, smysl, stormhatt, stub888, supremo, suseka, Taakeferd, Taragorm, VALERY, vasiljev_sergej, Velmi, Wail, witchfinder, wreak,
Sep 8 2021, 09:23:23 Cthulhu Biomechanical - Elon Musk Superstar (2019)


*Artist: Cthulhu Biomechanical
*Album: Elon Musk Superstar
*Year: 2019
*Genre: Industrial/EBM
*Country: Russian Federation
*Format: mp3@CBR320kbps
*Size: 78MB

Tracklist:
1. Elon Musk's Prayer / (Post)Modern Gagarin (The Launch II) 04:20
2. Birthing Chant / Gagarin IV (Death) 04:34
3. Donative Chant / Gagarin III (On The Earth) 06:47
4. Parting Chant / Gagarin II (Salute) 11:50
5. Farewell Chant / Gagarin I (The Launch) 05:28
******************************
Total playing time: 32:59



[more=Extended info]Death Knell Productions

Digipack limited to 200 copies.[/more]

[more=Technical info]
Input File: CD-1721748617-TRACK01.wav
Channels : 2
Sample Rate : 44100
Precision : 16-bit
Duration : 00:04:19.59 = 11447772 samples = 19469 CDDA sectors
File Size : 45.8M
Bit Rate : 1.41M
Sample Encoding: 16-bit Signed Integer PCM

[/more]

Register
(33) acerbus, Aresson, artscald, as71, boby9052, bowelled, Chasm, Emhyr var Emreis, Evilded, FullofHate, gwar, Hell_Is_Here, Infidel, infiltrator, judaz, lordbathor, nadin85, Namnlos, Nerevar, Olethros, Ostinato, Razorbladeswaltz, sacrut, scorn33, sethurius, spazm, UlvhedinGrom, VALERY, varlam4, vasiljev_sergej, Wail, Winter Funeral, Авел,
Sep 4 2021, 19:06:14 Raventale - Planetarium II (2020)
CD-Rip + Scans 320 kbps 44.1 Stereo
Register
(3) kimkayoung, Samaritianin, technoboy69,
Sep 4 2021, 17:58:07 Peste Noire - Le Retour Des Pastoureaux (2021)
Отражение -
Register
(49) 666days, A.L.Rapsod, Bitchkiller, Brann, Constantinus I, Demonic, Doooomed, Elfrey, Forest Silence, hellbibber, Hexer, Irimias, kimkayoung, kooongg, KVRT, lordbathor, mardak666, maringlen, maxxxy, MMMMM, Moonshtook, NachtWulf, nemx, neoatheist, Penetralia, postal67, recber, rimfrost, robertho777, sabr, Sacrim, sarcophagus, smes, smysl, stone88, Strygaldwir, suseka, technoboy69, thenecromancer, Thiarnan, Torlof, VALERY, vasiljev_sergej, vov7609, waffenss, yuratroll, ZambuL, Авел, дивин,
Aug 29 2021, 11:30:50 Impaled Nazarene - Eight Headed Serpent (2021)


Impaled Nazarene - 2021 - Eight Headed Serpent (LE Digipak)

[more=Tracklist]1. Goat Of Mendes
2. Eight Headed Serpent
3. Shock And Awe
4. The Nonconformists
5. Octagon Order
6. Metastasizing And Changing Threat
7. Debauchery And Decay
8. Human Cesspool
9. Apocalypse Pervertor
10. Triumphant Return Of The Antichrist
11. Unholy Necromancy
12. Mutilation Of The Nazarene Whore
13. Foucault Pendulum
14. Penis Et Circes
15. The Horny And The Horned[/more]

CD-rip 320 Kbps + Scans

Register
(13) avather, Deada, Hell_Is_Here, Hexer, INDARKNESS, kimkayoung, kostja, mizantrophist, Moonshtook, nadin85, Occultas, spazm, thenecromancer,
Aug 29 2021, 11:16:22 Svartsyn - Requiem (2020)


Svartsyn - 2020 - Requiem

CD-rip 320 Kbps + Scans

Register
(5) Antichrist, dcatagua, kimkayoung, Metalass, milosdjor,
Aug 29 2021, 11:01:51 Clandestine Blaze - Secrets Of Laceration (2021)


Clandestine Blaze - 2021 - Secrets Of Laceration

CD-rip 320 Kbps + Scans

Register
(10) AndreFrancis, Angry_Chair, Antichrist, Chasm, Evgen79, kimkayoung, KKK1488, sidharda, technoboy69, thenecromancer,
Aug 27 2021, 19:57:40 Niedergang - Átkoskönyv (2021)


*Artist: Niedergang
*Album: Átkoskönyv
*Year: 2021
*Genre: Black Metal
*Country: Hungary
*Format: mp3@CBR320kbps
*Size: 107MB

Tracklist:
1. Megperzselt Himnusz Az Alvilághoz 02:19
2. Aki A Sötétben Lakozik 07:03
3. A Megkeseredett Időtlenség Megidézése 09:08
4. Lángoló Szárnyak Árnyékában 05:45
5. A Maldoror-Féle Átváltozás 01:14
6. Paktum A Szenvedés Szentháromságával 05:53
7. Perverz Hozsanna Az Ördögnek 05:19
8. Az Istentelen Szerződés Megszentségtelenítése 05:23
9. A Kiüresedett Megsemmisülés Invokációja 01:11
******************************
Total playing time: 43:15



[more=Extended info]Independent,
limited to 200 copies.[/more]

[more=Technical info]
Input File: 02. Aki a sötétben lakozik.mp3
Channels : 2
Sample Rate : 48000
Precision : 16-bit
Duration : 00:07:03.48 = 20327184 samples ~ 31761.2 CDDA sectors
File Size : 16.9M
Bit Rate : 320k
Sample Encoding: MPEG audio (layer I, II or III)
Comments :
Title=Aki a sötétben lakozik
Artist=Niedergang
Album=Átkoskönyv
Tracknumber=02/09
Year=2021
Genre=Black Metal

[/more]

Register
(68) 666days, acerbus, AlexSmith, alikkon, arkaik, Bekkerev, Bulldozzzzzzer, caro, dan22, DarkHorde, Dirt_ORFEY, El_Chibo, EvilPiet, Forest Silence, GorAtheist, grimoir, Hell_Is_Here, Ildjarn, IncendiaryMight, judaz, Kazoth, kim666, Korpse, Krosis, lestllk, Marek, Mencae77, Metalass, Moonshtook, Mormo, multizwilling, murian, NachtWulf, nemx, noel666, nsk2008, Olethros, Ostinato, RADeus, rauhnacht, Razorbladeswaltz, rickzammuto, robertho777, SaintVitus, sandr666, satanist666, sethurius, SilentNidhogg, Skog1349, smes, SortVokter, stormhatt, supremo, suseka, Taakeferd, thenecromancer, the_cleanser, Tino, VALERY, varlam4, vasiljev_sergej, Vidyadharov, Wail, wreak, Авел, Варяг, Козлотролль, Сварог Барг,
Aug 27 2021, 19:31:30 Anguis Dei & I'm Ruins & Chemin De Haine - N.O.I.R. Volume II [split] (2021)


*Artist: Anguis Dei & I'm Ruins & Chemin De Haine
*Album: N.O.I.R. Volume II [split]
*Year: 2021
*Genre: Black Metal | Black Metal | Black Metal
*Country: Japan | Japan | France
*Format: mp3@CBR320kbps
*Size: 49MB

Tracklist:
Anguis Dei:
1. Le Ciecle des Deuils 05:35
I'm Ruins:
2. Defying the Black Theory 07:01
Chemin De Haine:
3. La Souffrance est Ailleurs 08:05
******************************
Total playing time: 20:41



[more=Extended info]Those Opposed,
September, 30th.

N.O.I.R. stands for Nihilisme Orthodoxe et Insanité Rigoriste.[/more]

[more=Technical info]
Input File: 01 - Anguis Dei - Le Ciecle des Deuils.mp3
Channels : 2
Sample Rate : 48000
Precision : 16-bit
Duration : 00:05:35.14 = 16086528 samples ~ 25135.2 CDDA sectors
File Size : 13.4M
Bit Rate : 320k
Sample Encoding: MPEG audio (layer I, II or III)
Comments :
Title=Le Ciecle Des Deuils
Artist=Anguis Dei
Album=Nihilisme Orthodoxe et Insanité Rigoriste Vol. II
Tracknumber=01/03
Year=2021
Genre=Black Metal

[/more]

Register
(26) acerbus, Astralgeist, Carcharoth, caro, deadterror, Hell_Is_Here, kefka, kim666, Lanceatum, Occultas, Ostinato, Qliphoth, Razorbladeswaltz, satanist666, seal, SileniusLegard, SilentNidhogg, stormhatt, Taakeferd, the_cleanser, UlvhedinGrom, VALERY, varlam4, vasiljev_sergej, wreak, yuratroll,
Aug 27 2021, 15:17:32 Helwetti - Helwetti (2021)
Встал на раздачу FLAC:

https://rutracker.org/forum/viewtopic.php?t=6101206
(6) A.L.Rapsod, andivi, dimmannius, Hexer, suseka, zekliek,
Aug 25 2021, 17:01:47 Asthenic Syn

Genre:
Black Metal
Lyrical Theme(s):
Suicide, Mortification, Social Weirdness, Futility
Origin:
Russia (Stavropol)
Formed In:
2012
Status:
Active
Current Line-Up:
Illwisher - Everything (SS-18, Lashblood, Shroud Of Frost, Bongtower, Giggerotah, Dark Illuzion)
Former/Past Member(s):
Whirlwind 666 - Drums

Discography:
Asthenic Syn - Thy Flesh Consumed [full-length] - 2016
Asthenic Syn - Neuroleptic Strangulation [full-length] - 2019
Asthenic Syn & Misanthropic Art - Antiworld Conspiracy [split] - 2019
Asthenic Syn - And Then There Were None [full-length] - 2021

*****
Official Site:
Encyclopaedia Metallum
(3) lordbathor, satanist666, thenecromancer,
Aug 24 2021, 21:53:30 Asthenic Syn - And Then There Were None (2021)
Мой обзор на данную работу.

Ни для кого не секрет, что депрессия и отчуждение как одни из наиболее распространенных форм эмоциональных нарушений имеют тенденцию к возрастанию и расширению. Именно на данных аффективных расстройствах и нарушениях личности и было сфокусировано пристальное внимание проекта Asthenic Syn, в творчестве которого спектральная психопатологическая симптоматика нашла своё самое убедительное выражение.

Работы ставропольской формации содержательно соотносятся с глубокомысленным художественное единством, в котором автобиографическое становится общечеловеческим, "пробуждаясь в бессознательных, блёклых инстинктах". Illwisher активно привлекает образы и обстоятельства персонального опыта и, творчески интерпретируя, наполняет их универсальным содержанием. Опустошённость, надрыв, подавленность, разлад, деградация, утраты в музыкальном мире Asthenic Syn трансформируются в глубокие художественные образы, преисполненные цинизма и необратимых изменений на фоне эмоционального и телесного напряжений: "По мертвеющей коже, с жаждой вонзаясь, / В крови, справедливости ради / Хлюпают дряблые вены взахлёб".

Третий по счёту полноформатный альбом Asthenic Syn "And Then There Were None" обнажает неразрешимое противоречие между категориями реального и идеального, в которых сама "жизнь – лишь побочное действие "драга", а "мертворождение – идеальный вариант для (у)рода людского". Идеал недоброжелательного музыканта — абсолютное одиночество и изоляция, в первую очередь внутренние. Ограниченная среда, демаскирующаяся "кластерными склепами", неспособна считаться с присущей личности потребности в одиночестве, её желании быть понятой, пусть и в момент совершения злостных, наполненных гомецидной агрессией преступлений, садистских поступков, склонности к разврату, вакханалии, пробуждению потаённых желаний, обнаруживающих угасающее родство с первородными инстинктами. Колебания личностной позиции на разных стадиях могут быть амбивалентными, противоречивыми, неустойчивыми, подобными абстинентным ломкам "в имитации душевной устойчивости". Когда творческая личность осознаёт вину перед своей нереализованной творческой природой, она радикально пересматривает свои отношения с миром, всё более напоминающим "бетонную плиту котлована". Постижение истовой сущности влечёт за собой преображение персонифицированного духовного начала собственного "я", отказ от неподлинного существования, насильственное порывание с навязанными извне фальшивыми моделями жизни. В композициях Asthenic Syn мир предстаёт репрессивным механизмом, уничтожающим под "ектении хора" жизнь и личность человека, которому, возможно, даже и не суждено оказаться за пределом постижимого, определённым человеку хвалёным, "асфиксирующим той же рукой, которой кормил" творцом мира. Личность заперта, заживо похоронена "в бетонных стенах адского блока", очерчена границами несвободного существования, пустого и бессмысленного, "кишащего чахоточным сбродом".

На "And Then There Were None" Illwisher остался верен парадигме, на которой базировались его ранние полноформатные альбомы: механизированный гибрид из традиционного Black Metal и запрограммированных индустриальных битов, воссоздающий холодное, антиутопическое существование. Гитарная работа поражает своей продуманностью, вариативностью, глубиной и пульсацией; вокал, взрезающий "глубинные просторы отчаяния", "царствует червём голодным в вакууме мертвых туш", а ударные уподобляются злобному, вышедшему из-под контроля механизму – неумолимой поступью Asthenic Syn направился прямиком к индустриальному апокалипсису, который ожидает всех нас: "На Пути лишь темнеет в глазах / В преддверии Омеги". Музыканту удалось воссоздать атмосферу не столько экспериментальную, сколько чистого психосоматического безумия: изменения происходят быстро, и в сознании конечного слушателя проецируется целый мир, охваченный технологиями, которые он так охотно принял и даже успел охотно подчиниться им.
Illwisher мастерски обрабатывает привычную для экстремального металла психологически мотивированную фабулу отдельно взятого трека с альбома в своеобразный мировоззренческий тупик, сопровождающийся дисторсией любых нравственных смыслов и целей личности. Лирическая составляющая альбома, "шершавой зубчатой кромкой проходящая со страстью по старым шрамам", очерчена жёстко индивидуалистическими ориентациями, исключающими какое-либо сочувствие, сопереживание и принятие окружающего мира: каждая строфа – "кипящая жестокость жгучего яда, жестокая истина слова", изливающаяся и проецирующаяся в адрес конвенциального социума, за личные потери, утрату статусных ролей, невозможность реализации сущностных личных ценностей. Человек сам по себе лишён какого-либо высокого смысла, он обладает лишь набором определённых матричных функций, значение которых ничтожно, а проявление рассматривается лишь в предельный по существу момент устранения себя от непереносимой угрозы своему существованию как личности, социальному индивиду, от ожидаемых неизбежных (даже – предписанных) мук "в хаотичном режиме аннигиляции".

Самоуничтожение – это не выбор, а вымученное вытеснение торжествующей плоти, "растление бледного тела острым психозом", зафиксированный факт отчуждения, принять который – значит пробудиться в обществе, охваченном беспрерывным кризисом и нуждающемся в обновлении. "Эксперимент высшего замысла" по эксгумации истины, инициированный накопившимися разочарованиями, смысловой безрезультатностью и устойчивым негативным фоном, завершён. Сознание, благодаря которому осуществляются осмысление, понимание, оценивание внешнего мира, "природы человеческой злобы", успешно сформировано. Прекрати сопротивление, ибо оно бессмысленно; через жестокое своеволие и моральное разложение – отстрани человека от самого себя! "Развей по ветру ничтожный свой прах, брошенный выродок в концлагере смертников!.."

Оригинал поста в социальных сетях
(7) Chasm, metamfer, mirotvorets, Sangreal, sethurius, Vitald, vosmidesijatye,
Aug 23 2021, 19:31:37 Thy Darkened Shade & Amestigon & Inconcessus Lux Lucis & Shaarimoth - Samaelilith: A Conjunction Of The Fireborn [split] (2021)
Отражение -
Register
(15) Bzth, Carcharoth, CRUNCH, Hexer, isvili, Mencae77, nadin85, nikolay81, Occultas, Razorbladeswaltz, smes, Vardlokkur, vasiljev_sergej, VerminGhost, Варяг,
Aug 23 2021, 18:39:38 Helwetti - Helwetti (2021)
ЦИТАТА(Hexer @ Aug 23 2021, 20:27:12) *
Если бы не коммент metamfer о том что это проект Тираннуса

В дополнительной информации я об этом тоже не умолчал. 28.gif
(6) andivi, dimmannius, metamfer, sacrut, SSWolf88, thenecromancer,
Aug 23 2021, 17:03:39 Helwetti - Helwetti (2021)


*Artist: Helwetti
*Album: Helwetti
*Year: 2021
*Genre: Black Metal
*Country: Finland
*Format: mp3@CBR320kbps
*Size: 83MB

Tracklist:
1. Illuminated above time 06:17
2. Made unto Death 05:44
3. Across the cold (into the third tower) 04:02
4. Strength from human veins 05:06
5. Pale remembrance 05:57
6. Invocation of open eyes and crimson tongues 04:31
******************************
Total playing time: 31:37

[more=Extended info]CD-Rip+Scans, эксклюзивно для портала!!!

Первый и последний альбом Helwetti. Запись проходила в то же время и на той же студии, что и сессии "Womb of Pestilence" Warloghe (январь, 2001). Все тексты написаны в период с 2005 по 2017 a.b. Эорлом Тираннусом, вокальные партии записаны в 2020.

Реликт, которого не доставало на временной шкале финского Black Metal конца 90-х, силами Illuminating Void Productions явлен в MMXXI.[/more]

[more=Technical info]
Input File: 01. Illuminated above time.mp3
Channels : 2
Sample Rate : 44100
Precision : 16-bit
Duration : 00:06:16.71 = 16612735 samples = 28253 CDDA sectors
File Size : 15.1M
Bit Rate : 320k
Sample Encoding: MPEG audio (layer I, II or III)
Comments :
Title=Illuminated above time
Artist=Helwetti
Album=Helwetti
Tracknumber=1
Year=2021
Genre=Black Metal

[/more]

Register
(163) A.L.Rapsod, acerbus, aimtoknow, aleon, AlexSmith, alikkon, Alpha_Prime, ambre, andivi, Antichrist, Ash_1980, atavist, Bekkerev, BERZERK, biroutios, Bloodn Lord, Boozer, Branis, Bulldozzzzzzer, Carcharoth, caro, Chasm, Constantinus I, ctulhudagon, Daale, dalex, DarkHorde, Deathconnect, DenisKov, dermarsoran, DiKobRaZzz, dimmannius, elsunga, El_Chibo, Emhyr var Emreis, eternald, Evgen79, Evilded, Forest Silence, Fryz, Geralder, GorAtheist, grimoir, gusto24191, Hadelik, Hefir, hellbibber, Hell_Is_Here, Ildjarn, Infidel, infiltrator, isvili, judaz, Kazoth, kim666, Korpse, LazarShadow, lopuh21, lordbathor, Lux, MadCarrot, madera, mardak666, Marek, maringlen, Mencae77, Metalass, metamfer, MikaelBox, milosdjor, mirotvorets, mizantrophist, Moldavite, mondblut, Moonshtook, morbidangelo, multizwilling, NachtWulf, nadin85, Nattfodd, nemx, Nerevar, nsk2008, nsmetalhead, Oath19, Occultas, oldvarg, Olethros, Ostinato, Phlebotomized, postal67, Premature_Devotion, Qliphoth, raaf, rabindranad, RADeus, rammstein888, Raw1488, Razorbladeswaltz, recber, RENыч, Reverend, rimfrost, robertho777, RUDACHUR, RUSP73, sabr, sacrut, SaintVitus, Sanctus, Sangreal, satanist666, Scuns, seal, sethurius, Shadechaser, Shub, SilentNidhogg, Skog1349, smes, smysl, SSWolf88, StabWound, Storky, stormhatt, Strygaldwir, supremo, suseka, Svafrlami, SyncestrA, targonium, TeamatSE, thenecromancer, the_cleanser, Tino, toly1917, Torlof, troll_swamp, UlvhedinGrom, undeadlich, Unknown, v.v.m, VALERY, varlam4, vasiljev_sergej, VECTOR, Veggr, Velmi, Victim of fate, Vidder242, Vitald, vosmidesijatye, vov7609, Vraithee, Vranakrik, Wail, Wotanwatch, wreak, Xor, ZambuL, Авел, Варяг, Сварог Барг,
Aug 22 2021, 21:32:38 Inconcessus Lux Lucis

Genre:
Black Metal
Lyrical Theme(s):
Satanism, Death Worship, Chaos
Origin:
United Kingdom (Greater Manchester, North West England)
Formed In:
2009
Status:
Active
Current Line-Up:
Malphas - Guitars, Drums, Vocals (Golgotha, The First, Whorethorn, Teutoburg Forest (Live))
Baal - Bass (Whorethorn, Teutoburg Forest (Live))
M. Hemlock - Drums (Live) (Opus Mortis, Deitus (Live), Donn (Live), Teutoburg Forest (Live))
Former/Past Member(s):
Krayl - Drums
Donn - Drums (Teutoburg Forest, Ayn, Blooddawn, Shit, The First, Theo, Torch Of Darkness, Donn)

Discography:
Inconcessus Lux Lucis - Part 1: The Awakening Of Him [demo] - 2009
Inconcessus Lux Lucis - I - The Awakening Of He With The Strange Shadow [demo] - 2010
Inconcessus Lux Lucis - Severed From Sephiroth [ep] - 2012
Inconcessus Lux Lucis - Disintegration: Psalms Of Veneration For The Nefarious Elite [full-length] - 2014
Inconcessus Lux Lucis - Crux Lupus Corona [ep] - 2014
Inconcessus Lux Lucis - The Crowning Quietus [full-length] - 2017
Inconcessus Lux Lucis & Thy Darkened Shade & Amestigon & Shaarimoth - Samaelilith: A Conjunction Of The Fireborn [split] - 2021

*****
Official Site:
Encyclopaedia Metallum
(3) RENыч, satanist666, thenecromancer,
Aug 22 2021, 17:33:03 Vobiscum Inferni

Genre:
Black Metal
Lyrical Theme(s):
Satanism, Occultism, Darkness
Origin:
Brazil (Itapevi, São Paulo)
Formed In:
2004
Status:
Active
Current Line-Up:
Diablorum Rex Infernalium - Vocals (Black Achemoth, Spell Forest)
Lord Vestis - Guitars
Apollyon - Bass (The Black Spade, Amazarak, Mausoleum)
Saguinis Vultus Tenebrae - Drums
Former/Past Member(s):
Mortuary Satatrozny Atrocious - Guitars (Akroma Penuriante, Burezur, Front Natimorto, Tenebrifer, Black Achemoth, Abnegatum Christus)
Vekum - Guitars (Black Achemoth, Mournful Tears, Drowning Negativism, Abolish)
Magus Antropophagus - Guitars (Black Achemoth)
Mastiphal - Guitars
Moloch - Bass (Black Achemoth, Cruor Cultum, Abnegatum Christus)
Marquis Forneus - Bass (Spell Forest)
Asema - Bass
Corvus Profanus - Bass (Agouro (Live))
Lord Necro Warrior - Bass (Black Achemoth, Carnal Condemnation, Opvs Nostri, Without My Shadow, Abolish, Abnegatum Christus)
Miasma - Drums (Apokathilosis, Dismal Gale, A Distant Sun)

Discography:
Vobiscum Inferni - Gloria Sathanas Rex Infernus [demo] - 2006
Vobiscum Inferni - The Temple [demo] - 2006
Vobiscum Inferni - Ordo Sinistrari Et Cultus Pentaculum Sanguine [full-length] - 2008
Vobiscum Inferni - For The Great Of His Kingdom Of Fire And Blood [full-length] - 2013
Vobiscum Inferni - The Principle Of The Devil In The Flesh Desconstruction [compilation] - 2017
Vobiscum Inferni - Rex Ossivm [full-length] - 2019
Vobiscum Inferni & Kvltmor - Vobiscum Inferni/Kvltmor [split] - 2021

*****
Official Site:
Encyclopaedia Metallum
(4) kim666, RENыч, rickzammuto, satanist666,
Aug 22 2021, 17:02:43 Vobiscum Inferni & Kvltmor - Vobiscum Inferni/Kvltmor [split] (2021)


*Artist: Vobiscum Inferni & Kvltmor
*Album: Vobiscum Inferni/Kvltmor [split]
*Year: 2021
*Genre: Black Metal | Black Metal/Ambient
*Country: Brazil | Russian Federation
*Format: mp3@CBR320kbps
*Size: 135MB

Tracklist:
Vobiscum Inferni:
1. Discipline Of The Black Arts 05:10
2. The Order Is On Chaos 05:18
3. Vobiscum Inferni 07:27
4. Ad Mortvm 08:50
Kvltmor:
5. Snt Qayin Rex Mortis 15:40
6. Song of Saint Serpent Nachash - Necrophilim 616 14:46
******************************
Total playing time: 57:11



[more=Extended info]Death Defier Productions.
Tape limited to 69 copies.

Lossy-mastered.[/more]

[more=Technical info]
Input File: 01 - Discipline Of The Black Arts.mp3
Channels : 2
Sample Rate : 44100
Precision : 16-bit
Duration : 00:05:10.22 = 13680746 samples = 23266.6 CDDA sectors
File Size : 12.4M
Bit Rate : 320k
Sample Encoding: MPEG audio (layer I, II or III)
Comments :
Title=Discipline Of The Black Arts
Artist=Vobiscum Inferni
Album=Vobiscum Inferni/Kvltmor
Tracknumber=01/06
Year=2021
Genre=Black Metal

[/more]

Register
(19) caro, Goryssimo, Hell_Is_Here, Ildjarn, IncendiaryMight, kim666, metamfer, MP101M, RENыч, satanist666, SilentNidhogg, smysl, stormhatt, thenecromancer, varlam4, vasiljev_sergej, Velmi, wreak, yuratroll,
Aug 22 2021, 17:01:31 Blasphemaniac - The Call Of The Black Goat [demo] (2021)


*Artist: Blasphemaniac
*Album: The Call Of The Black Goat [demo]
*Year: 2021
*Genre: Black/Speed Metal
*Country: Brazil
*Format: mp3@CBR320kbps
*Size: 42MB

Tracklist:
1. Blasphemaniac 02:46
2. Lust Possession 02:07
3. Postmortem Alcoholic Desecration 01:50
4. Satanic Witchcraft 04:53
5. The Call Of The Black Goat 02:41
6. Black Viper (Vectom Cover) 03:21
******************************
Total playing time: 17:38



[more=Extended info]Death Defier Productions.
Tape limited to 33 copies.[/more]

[more=Technical info]
Input File: 01 - Blasphemaniac.mp3
Channels : 2
Sample Rate : 48000
Precision : 16-bit
Duration : 00:02:47.02 = 8016768 samples ~ 12526.2 CDDA sectors
File Size : 6.68M
Bit Rate : 320k
Sample Encoding: MPEG audio (layer I, II or III)
Comments :
Title=Blasphemaniac
Artist=Blasphemaniac
Album=The Call Of The Black Goat
Tracknumber=01/06
Year=2021
Genre=Black Metal

[/more]

Register
(14) Boozer, caro, Olethros, Pinhead666, RENыч, satanist666, SilentNidhogg, smysl, stormhatt, stumpheavyrock, Wail, wgs73, wreak, Xtohar,
Aug 21 2021, 16:54:48 Thanatomass

Genre:
Black Metal
Lyrical Theme(s):
Satanism, Left-Hand Path, Self-consciousness through Religious Concepts
Origin:
Russia (Moscow)
Formed In:
2018
Status:
Active
Current Line-Up:
A. Thanatos - Guitars, Vocals
TLG - Bass (Blackwinged, Örk Bastards (Live))
V. Scorn - Drums

Discography:
Thanatomass - MMXV​-​MMXVI [demo] - 2018
Thanatomass - Darkest Conjurations [ep] - 2020
Thanatomass - Black Vitriol & Iron Fire [ep] - 2021

*****
Official Site:
Encyclopaedia Metallum
(2) satanist666, thenecromancer,
Aug 20 2021, 19:39:54 Vulture Lord - Desecration Rite (2021)
Отражение -
Register
(8) biroutios, cancer1974, DOKTORBLACK88, Hexer, Metalass, RUSP73, sacrut, thenecromancer,
Aug 20 2021, 09:18:15 Disillumination - Vermin [ep] (2019)


*Artist: Disillumination
*Album: Vermin [ep]
*Year: 2019
*Genre: Black/Death Metal
*Country: Russian Federation
*Format: mp3@CBR320kbps
*Size: 65MB

Tracklist:
1. Asphyxiation 05:05
2. Liminality 06:22
3. Ego Death 05:15
4. Vermin 11:00
******************************
Total playing time: 27:42



[more=Extended info]EP издано в MMXXI силами Au-To-Dafe в формате вручную пронумерованных кассет тиражом, ограниченным 44 копиями. Поставляется в матовом слипкейсе с символом из серебряной фольги спереди.[/more]

[more=Technical info]
Input File: 04 - Vermin.mp3
Channels : 2
Sample Rate : 44100
Precision : 16-bit
Duration : 00:11:00.10 = 29110322 samples = 49507.4 CDDA sectors
File Size : 26.4M
Bit Rate : 320k
Sample Encoding: MPEG audio (layer I, II or III)
Comments :
Title=Vermin
Artist=Disillumination
Album=Vermin
Tracknumber=04/04
Year=2019
Genre=Black Metal

[/more]

Register
(25) Boozer, caro, deadwater, El_Chibo, eternald, Hell_Is_Here, holokausst, kim666, kolar666, Marek, metamfer, Occultas, Olethros, Ostinato, Pinhead666, sacrut, satanist666, sethurius, SilentNidhogg, VALERY, varlam4, vasiljev_sergej, Veggr, wreak, yuratroll,
Aug 17 2021, 10:53:07 Kosmokrator

Genre(s):
Black/Death Metal
Lyrical Theme(s):
Occultism, Eschatology, Nihilism
Origin:
Belgium
Formed In:
2013
Status:
Active
Current Line-Up:
J. - Vocals
D.V. - Guitars
C.M. - Guitars (Lead)
T. - Bass
P.R. - Drums (Cult Of Erinyes, LVTHN (Live))
Former/Past Member(s):
M. - Guitars (Lead), Vocals (Backing)
E. - Drums (Abyssum, Slaughter Messiah, Putrid Lust (Live), Spermafrost (Live))
T. - Guitars (Live)

Discography:
Kosmokrator - To The Svmmit [demo] - 2014
Kosmokrator - First Step Towards Supremacy [ep] - 2016
Kosmokrator - Live At Hamburg Untertage [live] - 2019
Kosmokrator - Through Ruin... Behold [full-length] - 2019
Kosmokrator & Hadopelagyal - The Orphic Chasm [split] - 2020

*****
Official Site:
Encyclopaedia Metallum
(1) satanist666,
Aug 17 2021, 10:07:00 Kosmokrator & Hadopelagyal - The Orphic Chasm [split] (2020)
320 kbps
Register
(12) Boozer, El_Chibo, Hexer, korovakaska, lestllk, Metalass, sacrut, satanist666, smysl, wanderer73, yuratroll, Zyozic_Bandutto,

282 Pages V   1 2 3 > » 
- Lo-Fi Version Support form
Copyrights and abuse reports form
Time is now: 24th October 2021 - 07:43:22