Welcome Guest ( Log In | Register )

История благодарностей участнику Абигор ::: Спасибо сказали: 115888 раз(а)
Дата поста: В теме: За сообщение: Спасибо сказали:
Aug 24 2020, 20:45:00 Precambrian - Tectonics (2020)
Отражение -
Register
(17) Black Cat, Bolitho, comradEnemy, El_Chibo, Femto, Fryz, garmonbozia, Gurgles, infiltrator, LexMortis, Mencae77, Occultas, Olethros, robertho777, StabWound, WolfFenrir, Авел,
Aug 22 2020, 12:59:56 Vorkuta - ...Where Still Darkness Dwells [compilation] (2018)


*Artist: Vorkuta
*Album: ...Where Still Darkness Dwells [compilation]
*Year: 2018
*Genre: Black Metal
*Country: Hungary
*Format: mp3@CBR320kbps
*Size: 120MB

Tracklist:
1. I Am The Warrior Of Past 04:27
2. Remords Posthume 03:04
3. Cryptstench 03:47
4. When The Ravens Dance In The Nightsky 04:05
5. Seeds Of Storm 06:59
6. Malicious Winds 07:57
7. Black Winter 05:20
8. Journey In The Night 07:11
9. Prophecies 06:25
10. Warriors Of Past 01:44
******************************
Total playing time: 50:59



[more=Extended info]Metal Ör Die,
February 18th.

Компиляция выпущена в ознаменование 15-й годовщины дебютной демозаписи Vorkuta "...Where Only Darkness Dwells".

Ремастеринг записи выполнил WL Rabenaas, бессменный гитарист венгерского культа Witchcraft. Рекомендации![/more]

[more=Technical info]
Input File: Vorkuta - ...Where Still Darkness Dwells - 03 Cryptstench.mp3
Channels : 2
Sample Rate : 44100
Precision : 16-bit
Duration : 00:03:46.57 = 9991825 samples = 16992.9 CDDA sectors
File Size : 9.06M
Bit Rate : 320k
Sample Encoding: MPEG audio (layer I, II or III)
Comments :
Title=Cryptstench
Artist=Vorkuta
Album=...Where Still Darkness Dwells
Tracknumber=3
Year=2018

[/more]

Register
(76) -=Hass=-, 1968_janeart, aimtoknow, Alpha_Prime, andeimon, Ash_1980, atavist, Bekkerev, BERZERK, canadaspaceman, cesar, ChaosArcana, chipsgott, Constantinus I, dermarsoran, Evilded, garmonbozia, Hefir, Hell_Is_Here, Ildjarn, Infidel, infiltrator, Ingvar, kauyumari, kim666, Korpse, kranger, KVRT, Leolomb, maringlen, MikaelBox, mirotvorets, Moonshtook, morbidangelo, multizwilling, Nerevar, nsk2008, Occultas, Olethros, Ostinato, Pinhead666, randumbum, Raw1488, Razorbladeswaltz, recber, RENыч, Reverend, ripper33, Rosen, Rudolfo_Metal, sacrut, SaintVitus, satanist666, scorn33, sethurius, Skog1349, SS2998, stub888, supremo, Surt, suseka, Terrorizer, thenecromancer, the_cleanser, VALERY, varlam4, vasiljev_sergej, Velmi, Vitald, vovenom, Wail, wanderer73, wreak, ZambuL, Авел, Нигилист,
Aug 22 2020, 12:38:54 Oldowan Gash - Hubris Unchained (2020)


*Artist: Oldowan Gash
*Album: Hubris Unchained
*Year: 2020
*Genre: Black Metal
*Country: United States
*Format: mp3@CBR320kbps
*Size: 99MB

Tracklist:
1. Mysteries Of Our Redemption 06:10
2. Blinding Moon 05:32
3. Inventing Armageddon 06:09
4. Feral Heart 06:25
5. Lasso Of Fate 05:37
6. Baffling Territory 04:47
7. Fortress Of Ignorance 07:27
******************************
Total playing time: 42:06



[more=Extended info]Drakkar Productions,
July 31st.[/more]

[more=Technical info]
Input File: 03 - Inventing Armageddon.mp3
Channels : 2
Sample Rate : 44100
Precision : 16-bit
Duration : 00:06:08.77 = 16262669 samples = 27657.6 CDDA sectors
File Size : 14.8M
Bit Rate : 320k
Sample Encoding: MPEG audio (layer I, II or III)
Comments :
Title=Inventing Armageddon
Artist=Oldowan Gash
Album=Hubris Unchained
Tracknumber=3/7
Year=2020
Genre=Black Metal

[/more]

Register
(77) 1968_janeart, acerbus, aimtoknow, AlexSmith, alikkon, Alpha_Prime, Ash_1980, atavist, Bekkerev, BERZERK, caro, cesar, Constantinus I, Coroner, dermarsoran, El_Chibo, Evilded, garmonbozia, grimoir, Grogro, Hefir, Infidel, infiltrator, Ingvar, judaz, kauyumari, kim666, kranger, KVRT, Leolomb, Mares, maringlen, mirotvorets, Moonshtook, morbidangelo, multizwilling, Nerevar, nsk2008, Occultas, oldvarg, Olethros, Ostinato, Pinhead666, randumbum, Raw1488, Razorbladeswaltz, recber, RENыч, ripper33, robertho777, Rosen, RUDACHUR, sacrut, SaintVitus, satanist666, scorn33, sethurius, Shadechaser, SilentNidhogg, Skog1349, squall8fr, SS2998, stub888, supremo, Surt, suseka, Taragorm, thenecromancer, VALERY, varlam4, vasiljev_sergej, Vitald, vovenom, Wail, wreak, Авел, Нигилист,
Aug 19 2020, 08:13:30 Sørgelig

Genre:
Black Metal
Lyrical Theme(s):
Darkness, Misanthropy, Nihilism
Origin:
Greece (Volos, Thessaly)
Formed In:
2017
Status:
Active
Current Line-Up:
Odious - Vocals (Isolert)
Έκπτωτος - Guitars (Insanity Cult)
NCRVZRS - Guitars
Reactive - Bass (Isolert, Leeches, Human Serpent (Live), Betrayed, Voidness, Frigidum Lacrima)
N.D. - Drums, Guitars, Additional Vocals (Dødsferd, Grab, Isolert, Leeches, Nihilsect, Sores, Insanity Cult (Live), Sordid Dogs, Voidness, Belief, Convicted, Nefarious Dusk, Y)

Discography:
Sørgelig - Forever Lost [ep] - 2017
Sørgelig - Apostate [full-length] - 2018
Sørgelig - Devoted To Nothingness [ep] - 2019
Sørgelig - We, The Oblivious [full-length] - 2019
Sørgelig - Sørgelig [ep] - 2020
Sørgelig & Akantha & Nimbifer & Hajduk - Ruins Of Humanity [split] - 2020

*****
Official Site:
Encyclopaedia Metallum
(3) Borderline1991, judaz, thenecromancer,
Aug 18 2020, 14:37:08 Ieschure - Cold Stars Of Eternity [ep] (2020)
ЦИТАТА(garmonbozia @ Aug 18 2020, 16:23:39) *
Sortilegia?

Конечно, демо-записями и "Arcane Death Ritual" не грешно обмазываться периодически. 25.gif
(1) Occultas,
Aug 18 2020, 14:14:25 Ieschure - Cold Stars Of Eternity [ep] (2020)
Непревзойдёнными образцами эталонных One-woman Project в Black Metal останутся финский Anguished и шведский Turdus Merula (особенно альбом "Herbarium").
(2) Alexis The Best, Occultas,
Aug 9 2020, 13:26:56 Käärmekristus (7) Borderline1991, DarkHorde, infiltrator, Necromag, satanist666, Tarkron, thenecromancer,
Jul 23 2020, 16:39:47 Ayr - The Dark (2020)
Отражение -
Register
(11) 1968_janeart, comradEnemy, Hell_Is_Here, infiltrator, rimfrost, SilentNidhogg, suseka, system36, thenecromancer, Veggr, ZambuL,
Jul 23 2020, 16:35:47 Spirit Possession - Spirit Possession (2020)
Отражение -
Register
(23) 1968_janeart, Bzth, DarkHorde, desekrator, Hell_Is_Here, infiltrator, Konst, kozura, madera, marilin, nadin85, Occultas, Olethros, pahail, PIOJANK, rabindranad, robertho777, Rudolfo_Metal, Spork, supremo, suseka, thenecromancer, troll_swamp,
Jul 23 2020, 07:38:47 Fides Inversa - Historia Nocturna (2020)
Отражение -
Register
(22) boby9052, CRUNCH, doomTemplar, fuoco, Indamage, Lamby90, Metalass, Mortuusinfernus, nadin85, NOMIDIMON, pahail, Phlebotomized, randumbum, robertho777, SadistikSlayer, SilentNidhogg, soulskinner681, thenecromancer, undeadlich, V_H_H_V, xska, yuratroll,
Jul 15 2020, 11:33:26 Ночница - Бог Украл У Вас Ненависть [ep] (2020)
(16) Bzth, ChrisK, Clitoriduss, infiltrator, Krosis, Kwaad, maxmagmas, Metalass, Moonshtook, nsk2008, paganheart, Premature_Devotion, varlam4, VerminGhost, vosmidesijatye, WOLAND,
Jul 14 2020, 17:19:49 Новости Black-направления
Мой обзор на новый альбом Absolute Key (шумовой проект лидера CoO). Доступен вместе со всеми треками:

https://vk.com/wall337711614_102

Причащаемся! 25.gif
(6) Daale, DarkHorde, infiltrator, kranger, Nerevar, sethurius,
Jul 11 2020, 09:59:14 Likferd - Ancient Frost (2020)
Пойду послушаю другой Likferd.
(3) garmonbozia, infiltrator, thenecromancer,
Jun 14 2020, 18:09:02 Black Goat - Dominion Of Fire (2020)


*Artist: Black Goat
*Album: Dominion Of Fire
*Year: 2020
*Genre: Black Metal
*Country: Russian Federation
*Format: mp3@CBR320kbps
*Size: 85MB

Tracklist:
1. Dreams After Death / Nekromaniak 05:40
2. Venefica 04:04
3. Uttuku 04:33
4. The Darkest Mysteries 04:24
5. Wrath Of The Damned 04:08
6. Into Eternal Damnation 03:25
7. Angel Of Death 05:11
8. Dominion Of Fire 05:24
******************************
Total playing time: 36:49



[more=Extended info]Iron, Blood & Death Corporation,
June 10th.

Старорежимный Black Metal в духе Hellhammer, Mortuary Drape и Necromantia. В записи принимали участие Kapala King V (Disharmony) и Mutilator (Varathron, Rotting Christ).

Exclusively for metalarea.[/more]

[more=Technical info]
Input File: 08 - Black Goat - Dominion Of Fire.mp3
Channels : 2
Sample Rate : 44100
Precision : 16-bit
Duration : 00:05:24.75 = 14321299 samples = 24356 CDDA sectors
File Size : 13.0M
Bit Rate : 320k
Sample Encoding: MPEG audio (layer I, II or III)
Comments :
Title=Dominion Of Fire
Artist=Black Goat
Album=Dominion Of Fire
Tracknumber=08
Year=2020
Genre=Black Metal

[/more]

Register
(90) -=Hass=-, 1968_janeart, acerbus, aimtoknow, Alpha_Prime, andeimon, Aresson, Ash_1980, atavist, BERZERK, Branis, cesar, cist, Constantinus I, CRUNCH, Daale, DarkHorde, dermarsoran, El_Chibo, eternald, Evilded, Fess, garmonbozia, gena, Golodomor, Hefir, Hell_Is_Here, Infidel, infiltrator, Ingvar, judaz, kauyumari, kim666, KNessJM, KVRT, LazarShadow, lestllk, Ludwig Hagen, maringlen, MikaelBox, mirotvorets, Mist13Signifier, mizantrophist, Moonshtook, morbidangelo, multizwilling, nadin85, Nerevar, nsk2008, Occultas, older68, oldvarg, Olethros, Ostinato, Pinhead666, randumbum, Raw1488, Razorbladeswaltz, recber, RENыч, ripper33, robertho777, Rodin, Rosen, sabr, sacrut, Sanctus, satanist666, scorn33, Shadechaser, SilentNidhogg, Skog1349, Slavas, smysl, spazm, SS2998, Surt, thenecromancer, Tino, tireheb, VALERY, varlam4, vasiljev_sergej, Vitald, vovenom, Wail, ZambuL, Авел, металлист, Нигилист,
Jun 9 2020, 20:57:05 Black Candle Wax - Crematorium [demo] (2020)


*Artist: Black Candle Wax
*Album: Crematorium [demo]
*Year: 2020
*Genre: Black Metal
*Country: United States
*Format: mp3@CBR320kbps
*Size: 49MB

Tracklist:
1. Ash Of Root 01:36
2. Met With Death 03:44
3 Coffer of Bones 03:10
4. Dark Sigils 04:30
5. Hangman's Hood 03:24
6. Balcony 02:58
7. Relief From Mortal Shackles 01:30
******************************
Total playing time: 20:52



[more=Extended info]Odd Memory

Tape-rip by toooooomb[/more]

[more=Technical info]
Input File: 04. Dark Sigils.mp3
Channels : 2
Sample Rate : 44100
Precision : 16-bit
Duration : 00:04:30.20 = 11915776 samples = 20264.9 CDDA sectors
File Size : 10.8M
Bit Rate : 320k
Sample Encoding: MPEG audio (layer I, II or III)
Comments :
Title=Dark Sigils
Artist=Black Candle Wax
Album=Crematorium
Tracknumber=4
Year=2020
Genre=Black Metal

[/more]

Register
(41) 1968_janeart, acerbus, Alexis The Best, andivi, Bekkerev, Boozer, Bzth, Daale, Disgorge666, El_Chibo, garmonbozia, gena, grimoir, Hell_Is_Here, Ildjarn, infiltrator, kim666, Krosis, multizwilling, obituarydark, Occultas, Olethros, Ostinato, Panacea, RADeus, randumbum, Razorbladeswaltz, ripper33, robertho777, Rosen, Sangreal, satanist666, sethurius, SilentNidhogg, Storky, stub888, thenecromancer, VALERY, varlam4, vasiljev_sergej, Wail,
Jun 9 2020, 12:42:02 Branikald - The Strings Of Inspiration Sing (2000)
Reissue 2020.
320 CBR [Lame 3.93.1] | 102 MB
Register
(7) Aresson, lordbathor, LVXXVL, Sangreal, sethurius, STN, varlam4,
Jun 7 2020, 20:53:36 Anchoreth - Гимн Анахорету [demo] (2005)
Reuploaded for now.
(4) Borderline1991, Slavas, thenecromancer, Wail,
Jun 5 2020, 21:31:55 Barathrum - Fanatiko (2017)
Эксгумировал
Register
(2) MadCarrot, metalfanatic666,
May 22 2020, 20:01:00 (Dolch)

Genre:
Drone/Doom/Black Metal
Lyrical Theme(s):
Occultism, Rituals, Hell, Death
Origin:
Germany (Berlin)
Formed In:
2014
Status:
Active
Current Line-Up:
A - Bass
Arne - Guitars, Vocals, Programming
Pierre - Piano

Discography:
(Dolch) - Demo I [demo] - 2014
(Dolch) - Licht. Maschine. Herz. [ep] - 2015
(Dolch) - I & II [compilation] - 2015
(Dolch) & King Dude - Our Love Will Carry On/Riding With The King [split] - 2016
(Dolch) & King Dude & Caronte & The Ruins Of Beverast - King Dude | Caronte | The Ruins Of Beverast | (Dolch) [split] - 2017
(Dolch) - An Den Mond [single] - 2017
(Dolch) - III: Songs Of Happiness... Words Of Praise [ep] - 2017
(Dolch) - Psalm 7 [single] - 2019
(Dolch) - Feuer [full-length] - 2019

*****
Official Site:
(Dolch) @ Official Page
(3) Borderline1991, Mencae77, thenecromancer,
May 21 2020, 19:09:48 Esoctrilihum (4) Borderline1991, Chasm, Occultas, satanist666,
May 18 2020, 20:38:29 Neige Morte - IIII (2020)
Added links by tobacco
(1) Occultas,
May 16 2020, 20:11:07 Wodensthrone - Curse (2012)
320 kbps
Register
(5) doomTemplar, Korpse, MadCarrot, thenecromancer, varlam4,
May 14 2020, 17:29:29 Binary Code - Memento Mori (2020)
320 kbps
Register
(4) infiltrator, infozahist, Morgoth, okarodb,
May 14 2020, 15:46:00 Smaug - Open My Grave (2020)


*Artist: Smaug
*Album: Open My Grave
*Year: 2020
*Genre: Black Metal
*Country: Russian Federation
*Format: mp3@CBR320kbps
*Size: 65MB

Tracklist:
1. Interlude Part I 01:38
2. Obeisance 01:11
3. Death Yell 03:42
4. Death Masturbator 04:41
5. Intro Part II 02:12
6. Leaden Waters 05:36
7. They... From Other Worlds 04:22
8. Open My Grave 05:19
******************************
Total playing time: 28:41



[more=Extended info]Nomos Dei Productions SS - XLV

Smaug – это новое порождение русского Андеграунда. Группа, за которой стоят как ветераны, так и молодая кровь отечественного Подземелья. Особенностью группы является то, что состав держится в строжайшем секрете. Подобно некоторым тайным обществам, участники этого Ордена Дракона даже не знакомы друг с другом и общаются только через вокалиста, идейного вдохновителя проекта.[/more]

[more=Technical info]
Input File: 03 - Smaug - Death Yell.mp3
Channels : 2
Sample Rate : 44100
Precision : 16-bit
Duration : 00:03:42.08 = 9793684 samples = 16655.9 CDDA sectors
File Size : 8.88M
Bit Rate : 320k
Sample Encoding: MPEG audio (layer I, II or III)
Comments :
Title=Death Yell
Artist=Smaug
Album=Open My Grave
Tracknumber=03
Year=2020
Genre=Black Metal

[/more]

Register
(47) 1968_janeart, acerbus, alikkon, Aresson, atavist, autumnwood, Boozer, deadpyhto, Der_Hexer, egortitov, fuoco, Hell_Is_Here, Ildjarn, Infidel, infiltrator, judaz, kim666, kranger, Lafii, legion01, Ludwig Hagen, maringlen, Mist13Signifier, multizwilling, nadin85, nsk2008, oldvarg, Olethros, Ostinato, randumbum, robertho777, sacrut, SaintVitus, Scuns, senecazm, sethurius, SilentNidhogg, stone88, supremo, Surt, toly1917, VALERY, varlam4, vasiljev_sergej, Velmi, WarmasterChorus, xska,
May 14 2020, 14:07:16 Pursued - Decay (2020)
320 kbps
Register
(3) infiltrator, kim666, satanist666,

278 Pages V   1 2 3 > » 
- Lo-Fi Version Support form
Copyrights and abuse reports form
Time is now: 25th September 2020 - 08:57:57