Welcome Guest ( Log In | Register )

История благодарностей участнику Абигор ::: Спасибо сказали: 121313 раз(а)
Дата поста: В теме: За сообщение: Спасибо сказали:
Jun 8 2022, 19:28:49 Небокрай - Порт-Артур [ep] (2022)
Мой обзор на эту замечательную работу. Оригинал поста.

К сожалению, сегодняшняя повестка как на уровне общественных отношений, так и на "официальном" уровне предполагает филигранную и аккуратную работу с обтекаемым лексиконом, когда из этого самого лексикона осознанно-подчеркнуто вымывается понятие "русский" и соответствующие целеполагания "усмирения" на пути укрепления самосознания русского народа же. На фоне политических перемен историческая картина мира фрагментируется, становится подвижной и нелинейной, а вопрос отношения к прошлому и его интерпретации становится ведущим фактором, обуславливающим социальную жизнь. Процесс имитации и замещения достигает наивысшей точки, когда сама имитация становится тождественна реальности, в которой особое место отведено массе, пассивность которой в отношение вполне конкретных и крайне тревожащих вещей чревато трагедией. Именно подлинно творческое начало способно утвердить священное чувство единения с русской историей, совсем не случайно ставшей сегодня предметом острейшей идеологической борьбы.

Московской эскадре НЕБОКРАЙ предстоит провести слушателя по фортам, где шли ожесточённые бои, предлагая аудитории философское исследование мифологии войны в формате дорожек компакт-диска. Спустя век после войны здесь до сих лежат развалины, обломки бетона и застывшие искорёженные снарядами тяжёлые орудия защитников Порт-Артура, чья оборона стала одним из самых героических эпизодов русско-японской войны. В течение трёхсот двадцати девяти дней пятидесятитысячный гарнизон противостоял японской армии, численность которой доходила до двухсот тысяч солдат и офицеров. Испещрённый пулями и пропитанный шлейфом пороховых газов бастион, сталь стволов, пушечные лафеты – полноценные участники и свидетели великих событий начала XX века. Но сегодня они безгласны. Николаю "Князю" Гончарову сотоварищи предстоит приоткрыть завесу тайны над теми далекими событиями – воистину русский человек со взглядами, отражающимися в острие, в пале огненной бури среди вражьего множества нигилистов от истории, которые призваны "официальной" пропагандой лишить людей сопричастности национальной гордости. Новый MCD проекта – "Порт-Артур" – отправная точка отсюда и в Вечность среди грома пальбы в ощущении кровной связи времен; релиз чрезвычайно важный, своевременный и, без сомнения, сильный, отличающийся символичностью, глубиной и драматической подачей.

Одиннадцать месяцев жизнь портартуровцев представляла неустанную борьбу не только против яростного захватчика, но и против дальневосточной природы: "Ненастно и хмуро / Ярость уйми буйного шторма (раскатами накатывающегося на плёс); Ветер гудит, чёрная мгла / Вечности узел туго сплетён, Ярые волны рубит скала / Звёзд немота стынет огнём". Эстетическая задача музыкантов лихой эскадры заключается не просто в достоверной демонстрации знаковых эпизодов народной войны русских людей против японской орды, но в прославлении доблестных подвигов "храбрых воинов, презревших страх" – галереи родных лиц русских моряков, даурских и кубанских казаков.

Оборона Русской крепости Порт-Артур ознаменовалась настоящим проявлением доблести и военного долга простых солдат и командиров, лишённых тщеславия и самолюбования и готовых "пасть в бою за Русскую Честь". В глазах – отвага, в сердце – презрение к смерти и покой, разгорячённые боем лица сокрыты в полумраке, сизом ядовитом дыме. За хронометраж пластинки слушателю предстоит внять эмоциональной человеческой речи, слитой в горячности боя с рокотом артиллерии, пулемётов, миномётных орудий. Триумф воли, торжество надежды, коренящихся в человеческих сердцах, – надежды на себя, и на русского героя, что плечом к плечу к тебе на поле брани.

Музыкальным коллективам, существующим долгое время, довольно сложно избежать повторения старого звучания, не стать скучными. Однако НЕБОКРАЙ удаётся на протяжении почти двадцати лет создавать что-то новое и в то же время сохранять свой узнаваемый стиль – подобно Огненному Фениксу – символу постоянного развития, которое происходит по спирали с учётом прежнего опыта. Чувствуется, что "Порт-Артур" стал своеобразной проверкой творческих сил музыкантов и открыл новую страницу истории этого славного коллектива. Работа над MCD была проведена огромная и скрупулёзная. Пластинка получилась, с одной стороны, в меру тяжёлой и атмосферной за счёт объёмно звучащих хлестких, словно "шрамы на воде", гитарных риффов, доблестных, ритмически выверенных вокальных партий Николая, с другой – каждая композиция проникнута величественной энергетикой стойкости и героизма: ещё немного и НЕБОКРАЙ оставят слагание патриотических баллад под всполохи костров и поднимутся в штыковую атаку, в огонь, в картечный ад, где из пугающей черноты нарастает болезненный и нервный стрёкот смертоносных орудий. И здесь стоит отдать музыкантам должное: работа над акустическими партиями заглавной композиции пластинки проведена филигранно, подчёркнуты необходимые акценты, отражены всеобъемлюще-яростные эмоции. Воистину настоящий русский Heathen Black Metal – концептуальный, притягательный и новаторский. Война стала их плотью и кровью, они вобрали в себя её идеологию и сплавили сталью в своей крови.

На обложку диска музыканты поместили картину командного боя, в котором принимают участие флагманские корабли. "Липкий скрежет мин по бортам", оглушительные взрывы, свинцовый град, прицельные бомбардировки, сигнальные книги с привязанными грузами, уходящие в "кипящую бездну тёмной воды", флаги, прибитые к мачтам гвоздями, чтобы их не срывало взрывами, тлеющие вдали миноноски: "Вспышка – и вновь жадная тьма / Гнева раскат – навь пеленой". Под ураганным огнём матросы и офицеры, раненые и контуженные, вели прицельный огонь по противнику, заделывали пробоины, тушили пожары. А сейчас, потопив судно "желтолицых чертей", русские герои возвращаются в мутнеющую от крови бухту, "к новой земле издалека / наперекор ждущей беде", чтобы восстановить силы и снова пойти на прорыв. "Порт-Артур" – памятник настоящей русской, даже сказал бы точнее – белой энергии, важности и значительности смерти каждого защитника Отечества. Эта война – шире форпоста Российской Империи на Жёлтом море, она – на границах афферентного сознания, когда зияние образов несёт Трансцендентальность.

Сегодня сусальная идеология использует лицемерную и подложную модель, базирующуюся на идеях травестирующего патриотизма, равняя власть и страну, выставляя талантливых и разумных оппонентов врагами нации, по факту – десятилетиями уничтожая панславянскую культуру, историю и язык, культивируя псевдопатриотическое воспитание, под которым подразумевают, в первую очередь, индифферентность к себе. Кто противостоит этим "тенденциям" уже не будет записан в патриоты, а будет слыть изменником, предателем и коллаборационистом. Патриотизм – сокровенное чувство, находящееся глубоко в душе. О патриотизме судят не по словам, а по делам каждого человека. Патриот не тот, кто сам себя так называет, а тот, кого будут чтить таковым другие. Воспроизведя на материале доблестной эпохи первых десятилетий XX века "Ад" Данте, по кругам которого шествуют павшие герои "в войске русских богов", НЕБОКРАЙ записали ёмкую музыкальную эпитафию, в которой нашли отражение Честь и Верность, Правда и Белый Патриотизм... Русский Герой, давно ли шагал ты по низким горным хребтам к русской равнине или по безрадостным, изрытым снарядами окопам Мукдена или Цусима?.. Всё прошло! Ты восстал из пепла войны и разрушения, подобно Фениксу. Твоя Родiна! Моя Россiя!..

По вопросам приобретения физических носителей/трейда писать на электронные почты лейблов, занимавшихся изданием:

schwarzetod.cd@gmail.com
autodafeprod@yahoo.com
(2) Strego, Vitald,
May 27 2022, 19:58:10 Akathartos - Enlightenment By Darkness​ (Black Catharsis) (2022)


*Artist: Akathartos
*Album: Enlightenment By Darkness​ (Black Catharsis)
*Year: 2022
*Genre: Black Metal
*Country: Russian Federation
*Format: mp3@CBR320kbps
*Size: 85MB

Tracklist:
1. Exorcismus Spiritus Sancti (Divina Haeresim) (Intro) 01:22
2. Aeshma Daeva (The Blood Mace) 06:24
3. Emanations Of Death 04:26
4. The Unholy Trinity Divine 07:52
5. Impious Eucharist (Blood Of Virgin) 03:26
6. Eisheth Zenunim 05:27
7. The Great Beast Of Apocalypse 05:32
8. Exorcismus Spiritus Sancti (Divina Haeresim) II (Outro) 01:33
******************************
Total playing time: 36:02



[more=Extended info]Under the Sign of Garazel Productions,
May 22nd.

Свет Антрацитовой Луны будет обращён к Творцу, хранителю Творений Ситра Арха. Религиозный гнозис, в котором За-предельность - зияющая и жадная Бездна Абадонны.

Exclusively for metalarea![/more]

[more=Technical info]
Input File: 02 - Aeshma Daeva (The Blood Mace).mp3
Channels : 2
Sample Rate : 44100
Precision : 16-bit
Duration : 00:06:24.18 = 16942250 samples = 28813.4 CDDA sectors
File Size : 15.4M
Bit Rate : 320k
Sample Encoding: MPEG audio (layer I, II or III)
Comments :
Title=Aeshma Daeva (The Blood Mace)
Artist=Akathartos
Album=Enlightenment By Darkness​ (​Black Catharsis)
Tracknumber=02/08
Year=2022
Genre=Black Metal

[/more]

Register
(38) AlexSmith, alikkon, Altkiller, artscald, Branis, Bregon, Cadavru, Carcharoth, caro, Chasm, dermarsoran, eisigerwind, Hell_Is_Here, judaz, kefka, kim666, lunaraurora, Mencae77, metaljosue, MMMMM, Occultas, older68, Olethros, Ostinato, robertho777, Sacrim, sacrut, Sanctus, SilentNidhogg, stormhatt, supremo, Surt, Unknown, VALERY, varlam4, vasiljev_sergej, WOLAND, wreak,
May 22 2022, 11:25:45 Gauntlet Ring

Genre:
Black Metal
Lyrical Theme(s):
N/A
Origin:
United States (New York, New York)
Formed In:
2019
Status:
Active
Current Line-Up:
Taurus - Guitars, Vocals, Keyboards (Arbor, Fellwinter)
Mercenary - Drums, Bass (Fellwinter)

Discography:
Gauntlet Ring - Black Moon [demo] - 2020
Gauntlet Ring - Triumph Of The Lost Soul [demo] - 2020
Gauntlet Ring - Darkness Solace [demo] - 2020
Gauntlet Ring - As Far As Light Will Die [demo] - 2020
Gauntlet Ring - In The Shadow Of The Strigoi [demo] - 2020
Gauntlet Ring - Upon The Wings Of The Black Eagle [full-length] - 2021
Gauntlet Ring - May The Skies Rain Blood Upon The Earth [demo] - 2021
Gauntlet Ring - Tyrannical Bloodlust [full-length] - 2022

*****
Official Site:
Encyclopaedia Metallum
(2) thenecromancer, varlam4,
May 1 2022, 10:37:25 Kirk Hammett - Portals [ep] (2022)
Kill Hammett! за такое убожество.
(1) Jahmephisto,
Apr 16 2022, 11:12:29 Niteris & Крюкокрест - Niteris/Крюкокрест [split] (2022)


*Artist: Niteris & Крюкокрест
*Album: Niteris/Крюкокрест [split]
*Year: 2022
*Genre: Raw Black Metal | Raw Black Metal
*Country: Bosnia and Herzegovina | Russian Federation
*Format: mp3@CBR320kbps
*Size: 88MB

Tracklist:
Niteris:
1. Čežnje plamenoga srca 11:11
2. U sjaju oluje 08:14
Крюкокрест:
3. Игра в прятки 04:28
4. За ваш упокой 03:52
5. Кресты и венки 06:02
6. У зари-то у зореньки 04:25
******************************
Total playing time: 38:12



[more=Extended info]New Era Productions

CD limited to 200. Also available on tape-format.

Не осмотрелись: обложка - трибьют ильдярновскому Minnesjord.[/more]

[more=Technical info]
Input File: 02 - U Sjaju Oluje.mp3
Channels : 2
Sample Rate : 44100
Precision : 16-bit
Duration : 00:08:14.08 = 21788972 samples = 37056.1 CDDA sectors
File Size : 19.8M
Bit Rate : 320k
Sample Encoding: MPEG audio (layer I, II or III)
Comments :
Title=U Sjaju Oluje
Artist=Niteris
Album=Niteris/Крюкокрест
Tracknumber=02/06
Year=2022
Genre=Black Metal

[/more]

Register
(35) abob, acerbus, Alexis The Best, alikkon, artscald, Boozer, caro, Hell_Is_Here, Ildjarn, INDARKNESS, judaz, kefka, kim666, Lanceatum, maringlen, mondblut, murian, Nascutmort, Ostinato, rammmirez, Razorbladeswaltz, sacrut, SilentNidhogg, smes, stormhatt, supremo, umnaxtet, VALERY, varlam4, vasiljev_sergej, Velmi, Wail, WOLAND, wreak, yuratroll,
Apr 11 2022, 11:39:27 Пламень - Магия Крови (2022)
headcrab.png

(15) acerbus, DarkHorde, DMIYUR, Evjenne, Forest Silence, GorAtheist, legion01, Mencae77, Nerevar, princeshr, Qliphoth, Razorbladeswaltz, sacrut, spammer666, WOLAND,
Apr 11 2022, 11:15:45 Пламень - Магия Крови (2022)


*Artist: Пламень
*Album: Магия Крови
*Year: 2022
*Genre: Black Metal
*Country: Russian Federation
*Format: mp3@CBR320kbps
*Size: 66MB

Tracklist:
1. Внутри ΑΩ 04:25
2. Ритуал 06:05
3. Пророчество 06:15
4. Магия Крови 07:26
5. Дар 03:45
******************************
Total playing time: 27:56



[more=Extended info]CD-Rip

Творение Извечных, подчинивших Пламень, заветными речами предначертавших Величие Грядущего Гнева. Источник Тьмы требует непрестанного Осквернения, нечестивого источения Потоков Зла. Пять заклинаний – фанатично-исступлённый пакт с Господом Сатаной, чья Плоть живёт Вечно Внутри Тех, кто встал на Путь. Возврата нет, профанная жизнь оскудела и пресеклась – Solve et Coagula Навечно.

Издание для посвящённых в виде шестиполосного глянцевого A5 digi-cd. Сами знаете, где и у кого брать![/more]

[more=Technical info]
Input File: 04. Magic ov Blood.wav
Channels : 2
Sample Rate : 44100
Precision : 16-bit
Duration : 00:07:25.82 = 19660800 samples = 33436.7 CDDA sectors
File Size : 78.6M
Bit Rate : 1.41M
Sample Encoding: 16-bit Signed Integer PCM

[/more]

Register
(100) -=Hass=-, acerbus, AlexSmith, alikkon, andeimon, Aresson, artscald, BERZERK, bloodwind, Boozer, Brutal, caro, Chasm, Constantinus I, CRUNCH, DarkHorde, deadterror, deadwater, Deathconnect, Der Sturmer, DMIYUR, eisigerwind, Emhyr var Emreis, Evilded, Evjenne, Farfarello, Forest Silence, Fryz, Golodomor, GorAtheist, HMHamster, Infidel, judaz, kefka, kim666, KKK1488, legion01, Lord Noctua, lunaraurora, Lux, Mencae77, metaljosue, milosdjor, mirotvorets, mizantrophist, Moonshtook, Morgoth666, MorsPulchra, Nerevar, nsk2008, nsmetalhead, oldvarg, Olethros, Ostinato, pahanbos, Pentium.Disel, Premature_Devotion, princeshr, Qliphoth, rabindranad, RADeus, rammstein888, Razorbladeswaltz, RENыч, Requiescat, robertho777, rominow, rydra88, sacrut, sandr666, satanist666, scorn33, Scuns, Shadechaser, SilentNidhogg, smes, smysl, sok, stormhatt, supremo, Surt, Taakeferd, thenecromancer, varlam4, vasiljev_sergej, Velmi, Victim of fate, Vitald, vosmidesijatye, vov7609, Wail, wanderer73, WOLAND, wreak, Xor, xska, yuratroll, ZambuL, Авел, Сварог Барг,
Mar 28 2022, 20:02:00 Skaur - Reis Te Haelvete (2021)
Отличный альбом, не лишённый мелодичности, языческих влияний, с замысловатыми песенными структурами. Традиционная скандинавская магия, исполненная с экспрессивностью и эпичностью. Недавно приобрёл данный CD в фонотеку.
(8) DarkHorde, Evilded, pfk505, sacrvm_bellvm, sethurius, sok, Vardlokkur, WOLAND,
Feb 22 2022, 19:47:00 Misanthropic Art - Last Hunt (2022)


*Artist: Misanthropic Art
*Album: Last Hunt
*Year: 2022
*Genre: Black Metal
*Country: Russian Federation
*Format: mp3@CBR320kbps
*Size: 93MB

Tracklist:
1. Ghosts of Humanity / Призраки человечества 05:41
2. Wing of Seraph / Крыло серафима 06:09
3. Story of the First Human's Murder / История убийства первого человека 07:25
4. Wandering Time / Блуждающее время 06:45
5. Venomous Smog / Ядовитый смог 05:09
6. Last Hunt / Последняя охота 08:17
******************************
Total playing time: 39:26




[more=Extended info]Sigillvm Tenebrae Records, February 22th.

Эксклюзив для портала!

Пустота, угрожающая своей глубиной. В познании себя – катарсический опыт переживания Отчаяния. Отчаяние – и холодная койка реабилитационного центра, и "очертания птиц в антрацитовом небе". Black Metal, разъедающий, поглощающий и отторгающий измождённое сознание, подобно химии в венах. Последняя охота на неприкаянных призраков человечества объявлена! Чтобы даровать человеку счастье и свободу, ему необходимо преподнести фурик и шприц. Действуй, о Великий Жизнодавец и Человеколюбец!

Настойчиво трясите с венгра физносители![/more]

[more=Technical info]
Input File: 06 - Last Hunt.mp3
Channels : 2
Sample Rate : 44100
Precision : 16-bit
Duration : 00:08:17.95 = 21959595 samples = 37346.2 CDDA sectors
File Size : 19.9M
Bit Rate : 320k
Sample Encoding: MPEG audio (layer I, II or III)
Comments :
Title=Last Hunt
Artist=Misanthropic Art
Album=Last Hunt
Tracknumber=06/06
Year=2022
Genre=Black Metal

[/more]

Register
(135) -=Hass=-, acerbus, aimtoknow, AlexSmith, alikkon, andeimon, Aresson, artscald, autumnwood, BERZERK, Blackner, blacky66, Boozer, Branis, Brutal, Carcharoth, caro, cesar, Chasm, comradEnemy, Constantinus I, CRUNCH, ctulhudagon, Darkwood, deadpyhto, deadterror, deadwater, Deathconnect, Demonologist, Der Sturmer, Dirt_ORFEY, DMIYUR, doomTemplar, dsword, Emhyr var Emreis, ent404, Evilded, Evjenne, Forest Silence, Fryz, gav-gafi, Golodomor, GorAtheist, Guns, gusto24191, hellbibber, Hell_Is_Here, Hexer, HMHamster, Ignativs, igore2911, Ildjarn, Impaled, Indamage, Infidel, judaz, kauyumari, Kazoth, kefka, kim666, Kwaad, Legacy100, legion01, LEGION69, lestllk, Lord Noctua, lunaraurora, Lux, Melusinara, Mencae77, metaljosue, mirotvorets, Misanthrope@, Mist13Signifier, mizantrophist, MMMMM, Moonshtook, morbidangelo, MorsPulchra, nadin85, Nerevar, nsk2008, nsmetalhead, oldvarg, Olethros, Ostinato, Pentium.Disel, Phlebotomized, Premature_Devotion, princeshr, pwoods, Qliphoth, rabindranad, rammstein888, Razorbladeswaltz, recber, RENыч, Reverend, robertho777, rominow, RUSP73, rydra88, sacrut, SadistikSlayer, SaintVitus, satanist666, scorn33, Scuns, sethurius, Shadechaser, SilentNidhogg, Skog1349, smysl, stormhatt, supremo, Surt, technoboy69, thenecromancer, VALERY, Vardlokkur, varlam4, vasiljev_sergej, Victim of fate, Vidyadharov, Vitald, vov7609, Waam, WOLAND, wreak, Xor, xska, yarrsuaa, yuratroll, ZambuL, Авел,
Feb 18 2022, 21:56:11 Nokturnal Mortum - До Лунарної Поезії (2022)
Тема вычищена. Предупреждаю на будущее, что любые комментарии о "заблудших братьях" и "народе-нацисте" будут удаляться, а авторы подобных комментариев будут отправлены в длительный бан за нарушение правил портала. Обсуждаем прекрасную во всех отношениях музыку! Как-нибудь без "экспертных" мнений господ диванных экспертов обойдёмся...
(24) Alpha_Prime, Ash_1980, damage666, Emm Human, Exorcist, Faust_Vulkan_16, Hexer, karaczun, kazulapka, Lucifer, mardak666, Moonshtook, Nemetsua, Old Vyaine, Paradayz, plfan93, SAPOGi, Starseeker, thenecromancer, Thiarnan, Un4given, WOLAND, yuratroll, Луч,
Jan 25 2022, 16:41:21 Owls Woods Graves - Secret Spies Of The Horned Patrician (2022)


*Artist: Owls Woods Graves
*Album: Secret Spies Of The Horned Patrician
*Year: 2022
*Genre: Black Metal/Punk
*Country: Poland
*Format: mp3@CBR320kbps
*Size: 77MB

Tracklist:
1. The Entity 03:23
2. Return of Satan 03:23
3. Rabies 01:41
4. Obscure Monastery 03:50
5. Idzie Diabeł 03:48
6. Bats in the Belfry 04:10
7. Antichristian Hooligan 03:42
8. At the Crossroads 02:58
9. Zobaczysz 04:07
******************************
Total playing time: 31:02



[more=Extended info]Malignant Voices - MV40,
January 25th.

Thanks to Daale[/more]

[more=Technical info]
Input File: OWLS WOODS GRAVES - Secret Spies of the Horned Patrician - 02 Return of Satan.mp3
Channels : 2
Sample Rate : 44100
Precision : 16-bit
Duration : 00:03:23.56 = 8976864 samples = 15266.8 CDDA sectors
File Size : 8.39M
Bit Rate : 330k
Sample Encoding: MPEG audio (layer I, II or III)
Comments :
Title=Return of Satan
Artist=Owls Woods Graves
Album=Secret Spies of the Horned Patrician
Tracknumber=2
Year=2022

[/more]

Register
(81) aleon, AlexSmith, alikkon, Antichrist, artscald, Ash_1980, BandR75, Black Cat, Boozer, Bzth, Carcharoth, caro, cenzored, Chasm, Daale, dan22, Dark Sage, dcatagua, deadterror, EndlessDrone, eternald, Fallen Soul, Forest Silence, gena, Golodomor, grimoir, gusto24191, HMHamster, Ignativs, IncendiaryMight, judaz, kefka, kim666, MadCarrot, maochen, Melusinara, Mencae77, metala, Metalass, metaljosue, Moonshtook, multizwilling, nadin85, nemx, nsk2008, Oldskulthrasher, oldvarg, Olethros, Orkkh, Ostinato, p4B10, Pentium.Disel, postal67, RENыч, Reverend, rimfrost, robertho777, RUDACHUR, sabr, SaintVitus, Samaritianin, satanist666, scorpiothekiller, Scuns, SilentNidhogg, sksxxx, smes, spazm, stormhatt, supremo, Surt, Taakeferd, VALERY, varlam4, vasiljev_sergej, Vintersorg, Vitald, wgs73, wreak, WX419, zhol,
Jan 20 2022, 12:54:15 Trest - Ordalium (2019)
[youtube]XXJ0rbxPSP8[/youtube]
(1) Occultas,
Jan 18 2022, 19:50:10 Veter Daemonaz & Lashblood - Храм [split] (2021)


*Artist: Veter Daemonaz & Lashblood
*Album: Храм [split]
*Year: 2021
*Genre: Black Metal | Black Metal
*Country: Russian Federation | Russian Federation
*Format: mp3@CBR320kbps
*Size: 97MB

Tracklist:
Veter Daemonaz:
1. Возрадуйся / Ибо я видел 06:05
2. Пожары истин 05:03
3. В сердцах падших ангелов 05:36
Lashblood:
4. Крысиная проповедь 12:06
5. Пустынные крысы 07:03
6. Мерцающий закат 05:14
******************************
Total playing time: 41:07




[more=Extended info]S.N.D. Production – SND23

Истинный, Предвечный Храм Тёмного Искусства, в котором всё божественно, вечно и свободно. Застывшие вещи отражаются Внутри замкнутого круга в ознаменование Откровений, продиктованных разомкнутыми устами Творцов! Лишь то, что божественно по своей сути, исторгает Полноту Бытия. Они - из Них.

CD-Rip[/more]

[more=Technical info]
Input File: 01 - Возрадуйся - Ибо я видел.mp3
Channels : 2
Sample Rate : 44100
Precision : 16-bit
Duration : 00:06:05.58 = 16121946 samples = 27418.3 CDDA sectors
File Size : 14.6M
Bit Rate : 320k
Sample Encoding: MPEG audio (layer I, II or III)
Comments :
Title=Возрадуйся / Ибо я видел
Artist=Veter Daemonaz
Album=Храм
Tracknumber=01/06
Year=2021
Genre=Black Metal

[/more]

Register
(82) acerbus, aimtoknow, andeimon, artscald, Ash_1980, beast666, Bekkerev, BERZERK, Boozer, Branis, Bulldozzzzzzer, Carcharoth, caro, Chasm, Constantinus I, CRUNCH, Daemoniacus, dasreichss, deadterror, Emhyr var Emreis, ent404, Evilded, Forest Silence, Golodomor, GorAtheist, Hefir, Hell_Is_Here, Hexer, Ildjarn, Infidel, infiltrator, isvili, judaz, Kazoth, kefka, kim666, Krosis, krotovich, Lanceatum, lestllk, lopuh21, lordbathor, maringlen, Mencae77, Metalass, mirotvorets, Mist13Signifier, Moonshtook, murian, Nerevar, Occultas, Orkkh, Ostinato, PossessedMg412, Premature_Devotion, rabindranad, Raw1488, Razorbladeswaltz, recber, RENыч, sacrut, SaintVitus, satanist666, scorn33, SilentNidhogg, smes, smysl, stormhatt, supremo, technoboy69, the_cleanser, VALERY, varlam4, vasiljev_sergej, VerminGhost, vovan4ic, wreak, Xor, xska, yuratroll, ZambuL, Авел,
Jan 15 2022, 20:02:41 Scorpions - Rock Believer [single] (2022)
У них же уже был прощальный тур? Вроде дедки на пенсию отправились, не?
В любом случае - осуждаю... 23.gif
(1) paganheart,
Jan 15 2022, 11:44:06 Сивый Яр - Золотые Нити (2022)
В качестве основного инструмента на записи выступают новгородские гусли. Автор определяет этот альбом как "неосредневековые ноктюрны" и посвящает его Юрию Миролюбову (1892–1970), первооткрывателю (и, скорее всего, автору) таинственной "Велесовой книги", оказавшей влияние на возрождение восточноевропейского язычества.
(9) Black Cat, Diflock, Hexer, Infidel, Occultas, recber, SyncestrA, thenecromancer, varlam4,
Dec 27 2021, 20:28:31 Funeral Mist - Hekatomb (2018)
320kbps + Scans
Register
(8) boby9052, FullofHate, kimkayoung, milosdjor, Necromag, Occultas, RedMoloch, the_cleanser,
Dec 22 2021, 22:04:27 Black Kruud & Леший - Supplicating The Cosmic Affinity For Medieval [split] (2021)


*Artist: Black Kruud & Леший
*Album: Supplicating The Cosmic Affinity For Medieval [split]
*Year: 2021
*Genre: Raw Black Metal | Black Metal
*Country: Canada | Russian Federation
*Format: mp3@CBR320kbps
*Size: 56MB

Tracklist:
Black Kruud:
1. On The Sabbath, Mortified 05:36
2. Hypothermic Champion 07:53
Леший:
3. Краткие вести о скитаниях между звёздами верхом на пламенной комете 10:03
******************************
Total playing time: 23:32

[more=Extended info]DEATH HYMNS / HORRIBLE ROOM - 038

Tape limited to 100 copies.[/more]

[more=Technical info]
Input File: A2. Black Kruud - Hypothermic Champion.mp3
Channels : 2
Sample Rate : 44100
Precision : 16-bit
Duration : 00:07:53.60 = 20885892 samples = 35520.2 CDDA sectors
File Size : 18.9M
Bit Rate : 320k
Sample Encoding: MPEG audio (layer I, II or III)

[/more]

Register
(34) Alexis The Best, artscald, Boozer, Branis, caro, Daale, grimoir, Hell_Is_Here, Hexer, igore2911, Ildjarn, judaz, kim666, lordbathor, Nascutmort, nekro2007, nemx, nsmetalhead, RADeus, RENыч, rominow, Rudolfo_Metal, satanist666, sethurius, SilentNidhogg, stormhatt, Taakeferd, the_cleanser, VALERY, varlam4, Wail, Wolfera, wreak, Авел,
Dec 19 2021, 14:09:41 Black metal top-2021
+ Nigredo "Grimoire Timeless Death"
(1) Mencae77,
Dec 19 2021, 13:29:06 Majestat - Majestat [demo] (2020)
Скан кассетной обложки в 400 dpi

Register


По непроверенной информации в составе числится участник Вардры.
(1) thenecromancer,
Dec 14 2021, 12:25:59 Ceremonial Torture & Black Goat - Black Magic Compendium - Ceremonial Tortures In The Name Of Black Goat [split] (2021)
[youtube]acEw1y_7yVI[/youtube]
(3) Occultas, Orkkh, thenecromancer,
Dec 14 2021, 12:18:36 Ceremonial Torture

Genre:
Black Metal
Lyrical Theme(s):
Necroabyssic Mysteries
Origin:
Finland (Hamina, Kymenlaakso)
Formed In:
2013
Status:
Active
Current Line-Up:
Goatprayer Doom Predictor - All instruments, Vocals (Darkera, Diabolus Flagellation, Infernathan, Moonfall, Necromonarchia Daemonum, Witchcraft, Black Feast, OfDoom, Under Horns)

Discography:
Ceremonial Torture - Demo 2014 [demo] - 2014
Ceremonial Torture - Forbidden Obscurity [demo] - 2015
Ceremonial Torture - Majestic Dragon Moon [demo] - 2016
Ceremonial Torture & Reptile Womb - Ceremonial Torture/Reptile Womb [split] - 2019
Ceremonial Torture & Hail Conjurer - Ceremonial Torture/Hail Conjurer [split] - 2019
Ceremonial Torture & Black Goat - Black Magic Compendium - Ceremonial Tortures In The Name Of Black Goat [split] - 2021
Ceremonial Torture - Sabbath, Thou Arts [full-length] - 2021

*****
Official Site:
Encyclopaedia Metallum
(3) RENыч, satanist666, thenecromancer,
Dec 14 2021, 12:06:59 Ceremonial Torture & Black Goat - Black Magic Compendium - Ceremonial Tortures In The Name Of Black Goat [split] (2021)


*Artist: Ceremonial Torture & Black Goat
*Album: Black Magic Compendium - Ceremonial Tortures In The Name Of Black Goat [split]
*Year: 2021
*Genre: Black Metal | Black Metal
*Country: Finland | Russian Federation
*Format: mp3@CBR320kbps
*Size: 100MB

Tracklist:
Ceremonial Torture:
1. Moonspell Secrecy 02:14
2. Blood Communion 05:38
3. Enochian Angels 04:13
4. Serpent Eyed Magic 03:27
5. The Long Forgotten Wastelands (Liar Of Golgotha Cover) 03:54
Black Goat:
6. Cathedral Nightmare 01:34
7. Ritual Suicide 02:17
8. Satanic Unholiness 02:57
9. Lust & Shantaeluf 03:10
10. Werewolf (The Curse Of Gevaudan) 03:01
11. The Roman God 04:12
******************************
Total playing time: 36:37

[more=Extended info]Bestial Burst – BeBu 166[/more]

[more=Technical info]
Input File: 08. 08 Satanic Unholiness.mp3
Channels : 2
Sample Rate : 44100
Precision : 16-bit
Duration : 00:02:57.09 = 7809801 samples = 13282 CDDA sectors
File Size : 7.08M
Bit Rate : 320k
Sample Encoding: MPEG audio (layer I, II or III)
Comments :
Title=08 Satanic Unholiness
Artist=Black Goat
Album=Black Magic Compendium
Tracknumber=8
Year=2021
Genre=Black Metal

[/more]

Register
(31) andivi, artscald, Boozer, cacicandriera, Carcharoth, caro, gena, Hell_Is_Here, Ildjarn, kefka, kim666, Lanceatum, LazarShadow, mizantrophist, nemx, Occultas, Ostinato, Raw1488, sacrut, satanist666, smes, Storky, stormhatt, thenecromancer, uk82grind, Unknown, VALERY, varlam4, vasiljev_sergej, Wail, wreak,
Nov 28 2021, 10:27:27 Orlok - Black Funeral Holocaust (2013)
Reuploaded for now.
Register
(4) kim666, maxxxy, Occultas, vosmidesijatye,
Nov 28 2021, 10:04:36 Commander Agares - Legions Of Descending Twilight (2021)
Отражение -
Register
(1) vosmidesijatye,
Nov 28 2021, 08:28:55 Orlok - The Dark Knell (2021)
Отражение -
Register
(13) ChaosArcana, deadterror, FR453R, Mencae77, metala, mizantrophist, Occultas, suseka, VALERY, vasiljev_sergej, Vidder242, WOLAND, ZambuL,

283 Pages V   1 2 3 > » 
- Lo-Fi Version Support form
Copyrights and abuse reports form
Time is now: 7th July 2022 - 15:13:22