Welcome Guest ( Log In | Register )

История благодарностей участнику Абигор ::: Спасибо сказали: 118407 раз(а)
Дата поста: В теме: За сообщение: Спасибо сказали:
Jul 9 2021, 11:13:49 Genuflexión - Padre De Todos Los Abismos (2021)
Отражение -
Register
(6) Cramloth, Hexer, kim666, Moonshtook, Sangreal, sethurius,
Jul 9 2021, 11:08:11 Nekrospawn - Black Poison (2014)
ЦИТАТА(Vidyadharov @ Jul 9 2021, 08:39:57) *
А за что и кем он внесён в блэклист?

По личной просьбе самого участника проекта.
(1) Occultas,
Jul 8 2021, 14:55:34 Nekrospawn (3) Borderline1991, kim666, smysl,
Jul 8 2021, 14:22:11 Nekrospawn - Black Poison (2014)


*Artist: Nekrospawn
*Album: Black Poison
*Year: 2014
*Genre: Black Metal
*Country: Russian Federation
*Format: mp3@CBR320kbps
*Size: 88MB

Tracklist:
1. Venomous Spear Of Doom 07:23
2. Black Poison 06:04
3. Dawn Of Decay 07:47
4. Beyond... 06:28
5. Grown Through Rot 04:29
6. Sentinel Of Nightmares 05:13
******************************
Total playing time: 37:24



[more=Extended info]Покаянные уста возносят дерзновенным воплем в небеса Чёрный яд!
Изрыгни Ад; пусть в Смуте обратится в ничто всё чел/овечье!

В диско.[/more]

[more=Technical info]
Input File: 02. Black Poison.mp3
Channels : 2
Sample Rate : 44100
Precision : 16-bit
Duration : 00:06:04.27 = 16064483 samples = 27320.5 CDDA sectors
File Size : 14.6M
Bit Rate : 320k
Sample Encoding: MPEG audio (layer I, II or III)
Comments :
Title=Black Poison
Artist=Nekrospawn
Album=Black Poison
Tracknumber=2/6
Year=2014
Genre=Black Metal

[/more]

Register
(29) abob, aleon, AlexSmith, bOOLty, caro, cist, Constantinus I, craP_cillA, eternald, kim666, Marek, maringlen, nadin85, Occultas, Olethros, Ostinato, recber, Sacrim, sethurius, SilentNidhogg, smysl, supremo, Taakeferd, Tino, VALERY, vasiljev_sergej, Wail, WOLAND, wreak,
Jul 7 2021, 14:50:03 Nekrospawn - Three Ghastly Talismans From Black Lakes And Open Graves [compilation] (2021)


*Artist: Nekrospawn
*Album: Three Ghastly Talismans From Black Lakes And Open Graves [compilation]
*Year: 2021
*Genre: Black Metal
*Country: Russian Federation
*Format: mp3@CBR320kbps
*Size: 100MB

Tracklist:
1. Awakening 07:19
2. From The Temples Beyond 06:15
3. Obssessed By The Black Messiah 03:51
4. Dawn Of Decay 07:24
5. Beyond... 04:45
6. Hellscourge 05:22
7. XIII 06:59
******************************
Total playing time: 41:55



[more=Extended info]Зажги линии Круга, окропи зловонной кровью вязь магических слов, соверши тёмное подношение смертельными ранами на отвратительной плоти, низвергни себя в Ад, бросившись в объятия Его! 6 6 6![/more]

[more=Technical info]
Input File: 01. Awakening.mp3
Channels : 2
Sample Rate : 44100
Precision : 16-bit
Duration : 00:07:19.64 = 19388212 samples = 32973.1 CDDA sectors
File Size : 17.6M
Bit Rate : 320k
Sample Encoding: MPEG audio (layer I, II or III)
Comments :
Title=Awakening
Artist=Nekrospawn
Album=Three Ghastly Talismans from Black Lakes and Open Graves
Tracknumber=1/7
Year=2021
Genre=Black Metal

[/more]

Register
(20) abob, alikkon, caro, Constantinus I, ent404, eternald, gena, grobator, kim666, Olethros, Ostinato, recber, Sacrim, sethurius, smysl, supremo, VALERY, vasiljev_sergej, WOLAND, wreak,
Jul 2 2021, 14:03:01 My Blood - Мёртвые строки агонии (2021)
Строки Агонии, высвобождающие в чистоту кромешной ночи из катакомб духа истовое Сатанинское Стремление. Согласие с Творцом, с разрешения которого соглядатаи могут смерить взглядом преднамеченный шквал. Благословенная в своей щедрости хроматическая жатва, во время которой яркостью молнии нисходит затаившаяся в мучительном сознании Вечность. Изнурительный исход Плеяды Тьмы, под масками вкрадчивой Лжи несущей в прожжённую жизнь лишь невзгоды и увечья двуногим тварям! Сумрачная молитва, выскабливающая всю копоть Антимира для подношения богам и демонам подлинной магической традиции. Приговор карающего разума дерзновенных My Blood в адрес внерелигиозного мира будет приведён в исполнение орудиями страстей: пульсирующими жилами библейского Зверя и керикионом провозвестителя Гермеса.
(23) aleon, andivi, Ash_1980, Bekkerev, Bloodn Lord, Borderline1991, dimmannius, Evilded, Forest Silence, infiltrator, metamfer, mirotvorets, neludz, Oath19, Qliphoth, Razorbladeswaltz, sacrut, sethurius, Svafrlami, TeamatSE, vdolghi, Vitald, vosmidesijatye,
Jul 2 2021, 13:42:14 My Blood - Мёртвые строки агонии (2021)


*Artist: My Blood
*Album: Мёртвые строки агонии
*Year: 2021
*Genre: Black Metal
*Country: Russian Federation | Finland
*Format: mp3@CBR320kbps
*Size: 93MB

Tracklist:
1. Ночь финальной битвы 05:43
2. Отречение 05:03
3. Мёртвые строки агонии 07:51
4. NEMA 06:30
5. К смерти, часть вторая 04:08
6. Бесконечный смерти триумф 05:52
7. Финал 04:06
******************************
Total playing time: 39:13



[more=Extended info]Thou Shalt Kill! Records,
June 27th.

Эксклюзивно для портала.[/more]

[more=Technical info]
Input File: 03. Мёртвые строки агонии.mp3
Channels : 2
Sample Rate : 44100
Precision : 16-bit
Duration : 00:07:51.93 = 20812157 samples = 35394.8 CDDA sectors
File Size : 18.9M
Bit Rate : 320k
Sample Encoding: MPEG audio (layer I, II or III)
Comments :
Title=Мёртвые строки агонии
Artist=My Blood
Album=Мёртвые строки агонии
Tracknumber=3/7
Year=2021
Genre=Black Metal

[/more]

Register
(125) -=Hass=-, acerbus, aimtoknow, AlexSmith, alikkon, Alpha_Prime, ambre, andivi, Aresson, arkaik, Ash_1980, atavist, Bekkerev, BERZERK, Boozer, Borderline1991, Branis, Bulldozzzzzzer, caro, cesar, Chasm, Constantinus I, craP_cillA, ctulhudagon, Dantalian, DarkHorde, dcatagua, deadterror, Deathconnect, DenisKov, dermarsoran, DiKobRaZzz, dimmannius, elsunga, El_Chibo, ent404, Evilded, Femto, Forest Silence, Fryz, GorAtheist, Hefir, heinz88, Hostis, Ildjarn, IncendiaryMight, Infidel, infiltrator, isvili, judaz, Kazoth, kefka, kim666, Korpse, Legacy100, LEGION69, lordbathor, Lux, maringlen, metamfer, MikaelBox, milosdjor, mirotvorets, mondblut, Moonshtook, morbidangelo, multizwilling, NachtWulf, nadin85, Nattfodd, Nerevar, nsk2008, Oath19, Occultas, oldvarg, Olethros, Ostinato, Phlebotomized, postal67, Qliphoth, rabindranad, RADeus, recber, RENыч, rimfrost, ripper33, robertho777, rydra88, sabr, sacrut, SaintVitus, Sanctus, satanist666, Scuns, sethurius, Shadechaser, Shub, SilentNidhogg, Skog1349, Slavas, smysl, SS2998, Strygaldwir, supremo, Svafrlami, SyncestrA, TeamatSE, thenecromancer, toly1917, unit731, VALERY, varlam4, vasiljev_sergej, Vitald, vosmidesijatye, vovenom, Vranakrik, Wail, Wolfera, wreak, Xor, Yuk, ZambuL, Авел, Сварог Барг,
Jul 1 2021, 14:28:03 Waldgeflüster - Stimmen Im Wind 2020 (2020)


*Artist: Waldgeflüster
*Album: Stimmen Im Wind 2020
*Year: 2020
*Genre: Atmospheric Black Metal
*Country: Germany
*Format: mp3@CBR320kbps
*Size: 104MB

Tracklist:
1. Morgendämmerung 04:29
2. Waldgeflüster 10:16
3. Vintersjäl 05:35
4. Wotan Sang 09:36
5. Wenn Die Bäume 08:31
6. Abenddämmerung 03:17
******************************
Total playing time: 41:44



[more=Extended info]Nordvis Produktion

Демо, перезаписанное с живыми ударными и басом, выпущено в 2020 году как альбом в формате 12" винила.
Оригинал записи здесь.[/more]

[more=Technical info]
Input File: 04. Wotan Sang.mp3
Channels : 2
Sample Rate : 44100
Precision : 16-bit
Duration : 00:09:35.62 = 25384710 samples = 43171.3 CDDA sectors
File Size : 23.0M
Bit Rate : 320k
Sample Encoding: MPEG audio (layer I, II or III)
Comments :
Title=Wotan Sang
Artist=Waldgeflüster
Album=Stimmen Im Wind 2020
Tracknumber=4
Year=2020
Genre=Black Metal

[/more]

Register
(27) ALEXSATHANAS, AlexSmith, caro, Constantinus I, El_Chibo, kim666, Krosis, metala, NachtWulf, Olethros, Ostinato, RENыч, robertho777, satanist666, sergsazan, Shadechaser, SilentNidhogg, smysl, Storky, supremo, suseka, VALERY, varlam4, vasiljev_sergej, wreak, Zenial, Авел,
Jun 27 2021, 12:17:55 Hunferd - Hunferd (2021)


*Artist: Hunferd
*Album: Hunferd
*Year: 2021
*Genre: Black Metal
*Country: France
*Format: mp3@CBR320kbps
*Size: 89MB

Tracklist:
1. I 05:58
2. II 07:04
3. III 09:15
4. IV 14:48
******************************
Total playing time: 37:05



[more=Extended info]Drakkar Productions,
June 4th.

Featuring members of Ordo Templi Aeternae Lucis.

Бездна, преисполненная серой и зловонных запахов. Чёрная, гнилостная и замедленная аттракция, порождающая единственное желание – переступить порог на другую сторону. Фанатизм, продиктованный фальшью и ужасами жизни.
Незамутнённое религиозное слабоумие, выкроенное из одержимой шаманской поступи ударных, потусторонних криков, заклинаний, прошептанных молитв, однотонных риффов и зловещих звуков. Тайный мистицизм под религиозными белыми клубами дыма. Сознание, реальность, За-предельный Гнозис – такие, какими мы их её осознаём. Переживание опыта психологической смерти и возрождения через подлинную инвокацию духа.

Экслюзивно для портала.[/more]

[more=Technical info]
Input File: 03 - III.mp3
Channels : 2
Sample Rate : 44100
Precision : 16-bit
Duration : 00:09:15.58 = 24500902 samples = 41668.2 CDDA sectors
File Size : 22.2M
Bit Rate : 320k
Sample Encoding: MPEG audio (layer I, II or III)
Comments :
Title=III
Artist=Hunferd
Album=Hunferd
Tracknumber=03/04
Year=2021
Genre=Black Metal

[/more]

Register
(53) -=Hass=-, acerbus, alikkon, Antichrist, caro, Chasm, dan22, durandal, El_Chibo, ent404, Forest Silence, infiltrator, kefka, kim666, LEGION69, maringlen, milosdjor, Morra, multizwilling, murian, NachtWulf, Nerevar, Noxius, nsk2008, Occultas, Olethros, Ostinato, Qliphoth, Razorbladeswaltz, RENыч, ripper33, robertho777, SaintVitus, SatanicPanzer, satanist666, sethurius, SilentNidhogg, smysl, supremo, suseka, Taakeferd, thate_topa, thenecromancer, the_cleanser, toly1917, undeadlich, VALERY, varlam4, vasiljev_sergej, vosmidesijatye, Wail, WOLAND, wreak,
Jun 14 2021, 18:56:27 Akatarthos - Baptised By Darkness [ep] (2021)


*Artist: Akatarthos
*Album: Baptised By Darkness [ep]
*Year: 2021
*Genre: Black Metal
*Country: Russian Federation
*Format: mp3@CBR320kbps
*Size: 65MB

Tracklist:
1. Black Mass (Intro) 01:16
2. Death Embrace Of Lamashtu 06:37
3. Olahm - Ha - Qliphoth (Intro) 01:45
4. Enslavement Of Christian Souls 04:28
5. Golahab The Great Fire (Intro) 02:13
6. Eternal Hatred To Son Of Nazareth! 10:05
7. Glory Our Father, Satan! (Outro) 01:02
******************************
Total playing time: 27:26



[more=Extended info]Under the Sign of Garazel Productions[/more]

[more=Technical info]
Input File: 02 - Death Embrace Of Lamashtu.wav
Channels : 2
Sample Rate : 44100
Precision : 16-bit
Duration : 00:06:36.77 = 17497608 samples = 29757.8 CDDA sectors
File Size : 70.0M
Bit Rate : 1.41M
Sample Encoding: 16-bit Signed Integer PCM

[/more]

Register
(33) acerbus, Boozer, Bzth, Cadavru, caro, Cramloth, ent404, gena, Hell_Is_Here, infiltrator, kim666, korovakaska, Maximvs, Morra, Occultas, Olethros, Ostinato, robertho777, sacrut, SaintVitus, Sangreal, satanist666, sethurius, SilentNidhogg, smysl, Taakeferd, Tino, Unknown, VALERY, varlam4, vasiljev_sergej, Wail, wreak,
Jun 14 2021, 08:31:20 Gargowitch - Cannibal Troten [demo] (2019)
Хрень не хрень, но историку Олегу Соколову зашло бы в качестве музыкального сопровождения расчленения белого тела Анастасии Ещенко. Пальцы кисти художника обретут покой на горле жертвы...
(1) dimmannius,
Jun 13 2021, 14:23:32 Various Artists - Devastators Of The Suns: A Tribute To Katharsis [compilation] (2019)
Напряжённая работа по полосованию порочной плоти. Отточенное донельзя лезвие вгрызается, кромсает по миллиметру, всё глубже и глубже, выводя депрессивным зловещим жужжанием узорчатые порезы, через которые вскипающая кровь ищет выход. Сталь блестит обманом свершившегося мифа, признавая лишь уродство и дефективность, зафиксированные на дне Рва катастрофического ужаса и страданий. Голосящая от гнилой тоски музыка Великих насыщенна и богата: аффинерными криками мучительного бреда, воплями безутешного горя нутро выгрызающая и уносящая части калеченой плоти в захолустья Пропасти, скирдованной из смертоносных оползней, инерционных сумм. Сила инерции, порождённая катарсисом частотных крупозных доз, сумела за декады мимолётные направить мир к Чёрному Солнцу, чьи лучи забавляются хаосом экзальтированно-фанатичной толпы под злобно-насмешливый, презрительный смех Творца.

Рипанул диск из личной фонотеки и разместил на трекере:

https://rutracker.org/forum/viewtopic.php?t=6068207
(2) infiltrator, sethurius,
Jun 13 2021, 10:05:42 Void Meditation Cult - Our Necrotic Revelations [demo] (2020)


*Artist: Void Meditation Cult
*Album: Our Necrotic Revelations [demo]
*Year: 2020
*Genre: Black/Death Metal
*Country: United States
*Format: mp3@VBR254kbps
*Size: 34MB

Tracklist:
1. Allocosa Funerea (Opening Mass) 00:49
2. Adorned In Atrophy 03:20
3. The Path Of Desecration 03:54
4. Where The Living Lie Damned 04:20
5. A Verse For Unclean Spirits 00:59
6. Vernal Pools Of Blood And Shadow 04:53
******************************
Total playing time: 18:15



[more=Extended info]Tap-rip by Zero.

Приватное демо, выпущенное независимо самими музыкантами.

На архивах указан 2019 год, на Discogs - 2021. Я решил примирить стороны и указал нейтральный 2020.[/more]

[more=Technical info]
Input File: 03 The Path Of Desecration.mp3
Channels : 2
Sample Rate : 44100
Precision : 16-bit
Duration : 00:03:54.21 = 10328793 samples = 17566 CDDA sectors
File Size : 7.42M
Bit Rate : 254k
Sample Encoding: MPEG audio (layer I, II or III)
Comments :
Title=The Path Of Desecration
Artist=Void Meditation Cult
Album=Our Necrotic Revelations
Tracknumber=3/6
Year=2020
Genre=Black/Death Metal

[/more]

Register
(35) acerbus, andivi, azarath111, Boozer, canadaspaceman, caro, El_Chibo, fishish, gena, Hell_Is_Here, infiltrator, kim666, Krosis, lobosolitario, Luminous, marilin, Occultas, Olethros, Ostinato, Pinhead666, Razorbladeswaltz, RUSP73, sacrut, satanist666, SilentNidhogg, smysl, Taakeferd, thenecromancer, Tino, VALERY, varlam4, vasiljev_sergej, Wail, wreak, ZambuL,
Jun 12 2021, 18:04:40 Vaarherre - Kulden, Kjoettet [demo] (2011)


*Artist: Vaarherre
*Album: Kulden, Kjoettet [demo]
*Year: 2011
*Genre: Black Metal
*Country: United States
*Format: mp3@CBR320kbps
*Size: 65MB

Tracklist:
1. Suffocating Absence Of Light 04:35
2. Tree Of Many Nooses 04:57
3. Black Victory Of Death (Darkthrone Cover) 03:50
4. Kulden, Kjoettet 01:44
5. Day Of The Lord 05:59
6. From Your Veins, Come To Nothing 06:25
******************************
Total playing time: 27:30

[more=Extended info]Было в лоу.[/more]

[more=Technical info]
Input File: 04 - Kulden, Kjoettet.mp3
Channels : 2
Sample Rate : 44100
Precision : 16-bit
Duration : 00:01:43.64 = 4570348 samples = 7772.7 CDDA sectors
File Size : 4.15M
Bit Rate : 320k
Sample Encoding: MPEG audio (layer I, II or III)
Comments :
Title=Kulden, Kjoettet
Artist=Vaarherre
Album=Kulden, Kjoettet
Tracknumber=4
Year=2011
Genre=Black Metal

[/more]

Register
(15) caro, craP_cillA, Ildjarn, Ostinato, Razorbladeswaltz, satanist666, SilentNidhogg, smysl, Svafrlami, Taakeferd, thenecromancer, VALERY, varlam4, Wail, wreak,
Jun 12 2021, 16:34:48 Hordagaard - Slave In Darkness (2017)


*Artist: Hordagaard
*Album: Slave In Darkness
*Year: 2017
*Genre: Black Metal
*Country: Norway
*Format: mp3@CBR320kbps
*Size: 51MB

Tracklist:
1. Frozen Lands 04:00
2. For I Am 04:27
3. Antet Hys I Mørket 03:38
4. Pest Og Plage 04:32
5. Slaves In Darkness 02:21
6. Black Candles 02:34
******************************
Total playing time: 21:32



[more=Extended info]Azermedoth Records[/more]

[more=Technical info]
Input File: 05 Slaves In Darkness.mp3
Channels : 2
Sample Rate : 44100
Precision : 16-bit
Duration : 00:02:21.62 = 6245222 samples = 10621.1 CDDA sectors
File Size : 5.66M
Bit Rate : 320k
Sample Encoding: MPEG audio (layer I, II or III)
Comments :
Title=Slaves In Darkness
Artist=Hordagaard
Album=Slave In Darkness
Tracknumber=5
Year=2017
Genre=Black Metal

[/more]

Register
(43) AlexSmith, andivi, Boozer, cancer1974, caro, Constantinus I, craP_cillA, Hell_Is_Here, Ildjarn, infiltrator, Kazoth, kim666, korovakaska, kryptor, Marek, maringlen, Olethros, Ostinato, Razorbladeswaltz, Reverend, rominow, Rover, RUSP73, SaintVitus, satanist666, sethurius, Sjelekval, Skog1349, smes, smysl, Strygaldwir, supremo, suseka, Taakeferd, thenecromancer, the_cleanser, Tino, undeadlich, varlam4, vasiljev_sergej, Wail, wreak, zhol,
Jun 12 2021, 16:04:49 Gargowitch - Cannibal Troten [demo] (2019)
Cведённые жадным вожделением зубы завязли в уступчивых патологических отходах. Пульсирующие звуки, рождённые в пресыщенное мгновение освежевания плоти, сплёвываются через прожорливое нутро каннибала. Древнее капище, подобно загаженному отверстию в теле, заполненном солёной липкой кровью и требухой, призывает воздать хвалы обновлённой личине избранной жертвы. Пролонгация Арс Ноториа, в которой голос крови вибрирует шумовыми хроматизмами, выводящими калеченые зарисовки одержимого Культа. Потворствуй своей зависимости от извращённых желаний: ЖРИ!
(5) Constantinus I, dimmannius, infiltrator, sethurius, vosmidesijatye,
Jun 12 2021, 12:30:44 Altered Heresy - Dimensions Of Eternal Blasphemy Ordained In Satanic [demo] (2021)
Отражение -
Register
(2) infiltrator, vasiljev_sergej,
Jun 12 2021, 12:28:33 Shestopyor - Shestopyor (2021)
Отражение -
Register
(4) caro, infiltrator, sacrut, vasiljev_sergej,
Jun 12 2021, 12:26:58 Deathcircle & Xzælthu - Deathcircle/Xzælthu [split] (2021)
Отражение -
Register
(3) infiltrator, smysl, vasiljev_sergej,
Jun 12 2021, 12:25:14 Blessed In Sin & In Articulo Mortis - Ancient Ceremonies [split] (2021)
Отражение -
Register
(5) infiltrator, smysl, thenecromancer, VALERY, добрыйКот,
Jun 12 2021, 12:21:43 Black Spirit - El Sueño De La Razón Produce Monstruos (2021)
Отражение -
Register
(4) Alexis The Best, infiltrator, Occultas, vasiljev_sergej,
Jun 11 2021, 11:54:13 Gargowitch - Cannibal Troten [demo] (2019)


*Artist: Gargowitch
*Album: Cannibal Troten [demo]
*Year: 2019
*Genre: Experimental Black Metal
*Country: France
*Format: mp3@CBR320kbps
*Size: 71MB

Tracklist:
1. Les doigts de lampée - De la merde, lacustre - Cannibal troten 19:36
2. Les 3 soeurs violent - Dans ma pute de peau - Assassin oral respublic - Kokhitr, mort-né 26:20
******************************
Total playing time: 45:56




[more=Extended info]Devoted Art Propaganda - NMS 039

Ltd. 100 copies[/more]

[more=Technical info]
Input File: 01. Les Doigts De Lampée - De La Merde, Lacustre - Cannibal Troten.mp3
Channels : 2
Sample Rate : 44100
Precision : 16-bit
Duration : 00:19:38.14 = 51955886 samples = 88360.4 CDDA sectors
File Size : 47.1M
Bit Rate : 320k
Sample Encoding: MPEG audio (layer I, II or III)
Comments :
Title=Les Doigts De Lampée - De La Merde, Lacustre - Cannibal Troten
Artist=Gargowitch
Album=Comee - Cannibal Troten
Tracknumber=1/2
Year=2019

[/more]

Register
(22) acerbus, Constantinus I, dimmannius, ent404, Hell_Is_Here, infiltrator, Morra, Olethros, Razorbladeswaltz, sacrut, Sanctus, sethurius, SilentNidhogg, Taakeferd, thenecromancer, undeadlich, VALERY, varlam4, vasiljev_sergej, Vitald, Wail, wreak,
Jun 11 2021, 11:53:45 Gargowitch - Avidee [demo] (2019)


*Artist: Gargowitch
*Album: Avidee [demo]
*Year: 2019
*Genre: Experimental Black Metal
*Country: France
*Format: mp3@CBR320kbps
*Size: 117MB

Tracklist:
1. Le bûcher d'Agrile 12:08
2. Thotrevanchethot 07:41
3. Avidee 09:36
4. Akelarre XXX 08:02
5. Goetia Animosa 05:26
6. Magique Holo 06:48
******************************
Total playing time: 49:41



[more=Extended info]Devoted Art Propaganda - NMS 038

Ltd. 100 copies[/more]

[more=Technical info]
Input File: 05. Goetia Animosa.mp3
Channels : 2
Sample Rate : 44100
Precision : 16-bit
Duration : 00:05:27.07 = 14423963 samples = 24530.5 CDDA sectors
File Size : 13.1M
Bit Rate : 320k
Sample Encoding: MPEG audio (layer I, II or III)
Comments :
Title=Goetia Animosa
Artist=Gargowitch
Album=Avidee
Tracknumber=5/6
Year=2019

[/more]

Register
(24) acerbus, Constantinus I, dimmannius, ent404, gena, Hell_Is_Here, infiltrator, metala, milosdjor, Morra, Olethros, Razorbladeswaltz, sacrut, sethurius, SilentNidhogg, smysl, Taakeferd, thenecromancer, undeadlich, VALERY, varlam4, vasiljev_sergej, Wail, wreak,
Jun 6 2021, 16:45:16 Invehertex - Hacia El Vórtice (2015)
Рипанул и выложил на трекер сей замечательный альбом (переиздание Signal Rex) в Lossless.

CD-Rip 320kbps + Scans
Register


Register


Сакральное пламя, ниспосланное призрачными светилами неизвестного Тёмного Бога с целью осквернения любого проявления профанического. Ортодоксальная заупокойная месса, сложенная из невзгод и бед мира, кощунственная литургия, своими хоралами сопровождающая чумной распад врытых вглубь поруганных могил изнурённых тел. Отшлифованные, блестящие черенки лопат стираются в пыль о загаженные гробы в ознаменование деструктивного отсчёта, сгущающего бесплотную злобу в обретении смирения в плену бессознательной За-предельности!
(7) obituarydark, Occultas, sethurius, smysl, varlam4, vosmidesijatye, Wail,
Jun 6 2021, 11:59:20 Hail Conjurer - Dreams Of Serpent (2018)
Цикличный вселенский Пламень, в котором неустанно разверзается Козлогласная Обскура, взывающая отречься от ложного покровительства нескладной тверди. Завет Белёсого Аспида, написанный хроматизмами гибели, мора и розжига. Десница Тьмы, указывающая тернистый путь, в конце которого раскатная мгла мерцает углём предвечного костра, приявшего пустые души на заклание. Hail Conjurer!

Рипанул диск во FLAC со сканами. Enjoy!

Register


Оригинал на трекере.
(2) metamfer, sethurius,

281 Pages V   1 2 3 > » 
- Lo-Fi Version Support form
Copyrights and abuse reports form
Time is now: 28th July 2021 - 18:47:07