Welcome Guest ( Log In | Register )

История благодарностей участнику Абигор ::: Спасибо сказали: 112398 раз(а)
Дата поста: В теме: За сообщение: Спасибо сказали:
Nov 29 2019, 19:52:55 Mantiel - Luminous Emissions On The Graveless Entities (2018)
Отражение -
Register
(6) 1968_janeart, Frozenkult, Occultas, Rita, VALERY, vovenom,
Nov 28 2019, 20:01:48 Леший - Червь среди червей [demo] (2019)


*Artist: Леший
*Album: Червь среди червей [demo]
*Year: 2019
*Genre: Black Metal
*Country: Russian Federation
*Format: mp3@CBR320kbps
*Size: 55MB

Tracklist:
1. Я буду молчать 02:41
2. Власяница 03:31
3. Панегирик псковскому братству 04:37
4. Тягота 04:05
5. Мёртвое небо 04:34
******************************
Total playing time: 19:28



[more=Extended info]Sombre Rituel Productions – Sombre rituel #37,
Tape limited to 35 copies.

Леший is a part of the Pleskau Brethren Circle, along with Sidekut Slave, Ógilt and Mysticité.

Моя святость — колючая проволока
Ею расшито рубище моей власяницы
Ты — божество нетварного света
Я — прах праха, я — червь червя.
[/more]

[more=Technical info]
Input File: ЛЕШИЙ - ЧЕРВЬ СРЕДИ ЧЕРВЕЙ - 02 ВЛАСЯНИЦА.mp3
Channels : 2
Sample Rate : 44100
Precision : 16-bit
Duration : 00:03:31.37 = 9321329 samples = 15852.6 CDDA sectors
File Size : 8.72M
Bit Rate : 330k
Sample Encoding: MPEG audio (layer I, II or III)
Comments :
Title=ВЛАСЯНИЦА
Artist=ЛЕШИЙ
Album=ЧЕРВЬ СРЕДИ ЧЕРВЕЙ
Tracknumber=2
Year=2019

[/more]

Register
(28) -=Hass=-, 1968_janeart, Fess, Forest Silence, garmonbozia, kim666, Krosis, lestllk, lucifix, morbidangelo, Olethros, Ostinato, rickzammuto, Rosen, RUSP73, SaintVitus, satanist666, sethurius, SilentNidhogg, TAKATAEL, thenecromancer, undertrykkelse, VALERY, varlam4, vasiljev_sergej, vovenom, wanderer73, Сварог Барг,
Nov 28 2019, 19:21:50 Saatkrähe - Les Mémoires D'un Corbeau Mort I [compilation] (2019)


*Artist: Saatkrähe
*Album: Les Mémoires D'un Corbeau Mort I [compilation]
*Year: 2019
*Genre: Black Metal
*Country: France
*Format: mp3@CBR320kbps
*Size: 202MB

Tracklist:
1. Ravens Fly Over The Lands 05:12
2. Sleeping With Ravens 07:32
3. Vlad's Tomb 06:50
4. The Light Of A Crow 05:53
5. In The Graveyard Mist 08:12
6. Open Portal 07:58
7. Quintessence 12:13
8. Funérailles 12:18
9. Aux Alentours 09:05
10. Le Culte Du Passé 13:55
******************************
Total playing time: 1:29:08

[more=Extended info]Skjold,
2 x 12" vinyls

KVLT![/more]

[more=Technical info]
Input File: Saatkrähe - 05 - In The Graveyard Mist.mp3
Channels : 2
Sample Rate : 44100
Precision : 16-bit
Duration : 00:08:11.60 = 21679516 samples = 36869.9 CDDA sectors
File Size : 19.7M
Bit Rate : 320k
Sample Encoding: MPEG audio (layer I, II or III)
Comments :
Title=In The Graveyard Mist
Artist=Saatkrähe
Album=Les Mémoires d'un Corbeau Mort I
Tracknumber=05/10
Year=2019
Genre=Black Metal

[/more]

Register
(41) 1968_janeart, acerbus, Alexis The Best, alikkon, andivi, Andr, ChaosArcana, dagger666, durandal, Evilded, Fess, FlammenTod666, Frozenkult, FUDEDOR, kim666, lestllk, morbidangelo, Nicrophorus, nord6666, nsk2008, Olethros, Orkkh, Ostinato, Qliphoth, Reverend, Rita, robertho777, Rosen, sethurius, SilentNidhogg, stub888, supremo, suseka, TAKATAEL, thenecromancer, the_cleanser, VALERY, vasiljev_sergej, vovenom, Wail, ZambuL,
Nov 28 2019, 18:59:36 Mausoleum - Gospel Of The Soil (2018)


*Artist: Mausoleum
*Album: Gospel Of The Soil
*Year: 2018
*Genre: Black Metal
*Country: Canada
*Format: mp3@CBR320kbps
*Size: 81MB

Tracklist:
1. Host 06:23
2. Soil 09:15
3. Servant 07:35
4. Blight 04:59
5. Soul 07:04
******************************
Total playing time: 35:16



[more=Extended info]Murder On Ponce[/more]

[more=Technical info]
Input File: 02 Soil.mp3
Channels : 2
Sample Rate : 44100
Precision : 16-bit
Duration : 00:09:14.58 = 24457154 samples = 41593.8 CDDA sectors
File Size : 22.2M
Bit Rate : 320k
Sample Encoding: MPEG audio (layer I, II or III)
Comments :
Title=Soil
Artist=Mausoleum
Album=Gospel Of The Soil
Tracknumber=2
Year=2019

[/more]

Register
(26) 1968_janeart, atavist, Bunzlywotter, FlammenTod666, Frozenkult, FUDEDOR, kim666, morbidangelo, nord6666, nsmetalhead, Olethros, Ostinato, Rita, Rosen, satanist666, sethurius, SilentNidhogg, stub888, suseka, thenecromancer, tim47, VALERY, vasiljev_sergej, Velmi, vovenom, yuratroll,
Nov 27 2019, 19:10:40 Throne Of Evil - Conocimiento Oculto [ep] (2017)


*Artist: Throne Of Evil
*Album: Conocimiento Oculto [ep]
*Year: 2017
*Genre: Black Metal
*Country: Chile
*Format: mp3@CBR320kbps
*Size: 69MB

Tracklist:
1. Bajando De La Montaña 09:10
2. New Shadows In The Cave 05:07
3. Liber Al Vel Vegis 05:52
4. Grito De Odio Ahogado En El Bosque 05:20
5. Himno A Satanás (Emperor Cover) 04:20
******************************
Total playing time: 29:49



[more=Extended info]Schattenkult Produktionen[/more]

[more=Technical info]
Input File: 02 - New Shadows In The Cave.mp3
Channels : 2
Sample Rate : 44100
Precision : 16-bit
Duration : 00:05:07.09 = 13542493 samples = 23031.5 CDDA sectors
File Size : 12.3M
Bit Rate : 320k
Sample Encoding: MPEG audio (layer I, II or III)
Comments :
Title=New Shadows In The Cave
Artist=Throne Of Evil
Album=Conocimiento Oculto
Tracknumber=02/05
Year=2017
Genre=Black Metal

[/more]

Register
(37) -=Hass=-, 1968_janeart, craP_cillA, Fess, FlammenTod666, Frozenkult, garmonbozia, infiltrator, kauyumari, kim666, Legacy100, lestllk, lopuh21, Lunaris, marilin, Maximvs, nsk2008, Occultas, Olethros, Ostinato, Qliphoth, RADeus, Razorbladeswaltz, Rita, Rosen, RUSP73, SaintVitus, satanist666, sethurius, SilentNidhogg, Styx, suseka, thenecromancer, VALERY, vasiljev_sergej, vovenom, Авел,
Nov 27 2019, 18:58:36 Fiend - Misanthropic Flesh Experiences [compilation] (2018)


*Artist: Fiend
*Album: Misanthropic Flesh Experiences [compilation]
*Year: 2018
*Genre: Black Metal
*Country: Germany
*Format: mp3@CBR320kbps
*Size: 60MB

Tracklist:
1. Prelude To The End 01:31
2. Misanthropic Flesh Experience 04:48
3. Tunguska 03:28
4. Scorning The Nazarene 03:53
5. Until Death 06:34
6. Arctic Night 04:19
7. Blutmond 01:55
******************************
Total playing time: 26:28



[more=Extended info]Schattenkult Produktionen[/more]

[more=Technical info]
Input File: Fiend - 05 - Until Death.mp3
Channels : 2
Sample Rate : 44100
Precision : 16-bit
Duration : 00:06:34.05 = 17377693 samples = 29553.9 CDDA sectors
File Size : 15.8M
Bit Rate : 320k
Sample Encoding: MPEG audio (layer I, II or III)
Comments :
Title=Until Death
Artist=Fiend
Album=Misanthropic Flesh Experiences
Tracknumber=05/07
Year=2018
Genre=Black Metal

[/more]

Register
(31) -=Hass=-, 1968_janeart, Borderline1991, craP_cillA, dermarsoran, FlammenTod666, Frozenkult, infiltrator, kauyumari, kim666, Legacy100, lestllk, multizwilling, Necromag, Occultas, Olethros, Ostinato, Razorbladeswaltz, Rita, Rosen, satanist666, sethurius, SilentNidhogg, stub888, supremo, suseka, thenecromancer, VALERY, vasiljev_sergej, vovenom, Авел,
Nov 24 2019, 12:59:09 Vestibulum Vacuüi - Wie Leeft, Zal De Dood Nooit En Te Nimmer Kennen (2019)
Fast link -
Register
(7) dan22, ErikGoth, Hell_Is_Here, Necromag, nikolay81, suseka, thenecromancer,
Nov 24 2019, 12:56:33 Celestial Conjuration - Demo I [demo] (2019)
Fast link -
Register
(6) 1968_janeart, blacky66, Hell_Is_Here, luxxul, nikolay81, thenecromancer,
Nov 24 2019, 12:53:45 Ruho - The Devout Thrum (2019)
Fast link -
Register
(15) atavist, Chasm, Frozenkult, gena, Hell_Is_Here, Krosis, Necromag, Olethros, rimfrost, Rita, sabr, suseka, thenecromancer, the_cleanser, дивин,
Nov 14 2019, 18:51:23 Marras - Where Light Comes To Die (2019)
Отражение -
Register
(12) Beazth, gena, Moonshtook, nemx, older68, rimfrost, ripper33, Rita, suseka, Torlof, vovenom, дивин,
Nov 14 2019, 18:49:26 Apognosis - Dominion In Polarity (2019)
Отражение -
Register
(2) Indamage, Rita,
Nov 14 2019, 18:43:30 Ragnarok - Non Debellicata (2019)
Отражение -
Register
(23) BERZERK, Brann, DOKTORBLACK88, Evgundel, Golodomor, Indamage, Infidel, mardak666, nadin85, oldvarg, rimfrost, Rita, robertho777, sandr666, Shadechaser, smes, thenecromancer, Torlof, undeadlich, Vardlokkur, vov7609, xska, ZambuL,
Nov 14 2019, 18:37:46 The Deathtrip - Demon Solar Totem (2019)
Отражение -
Register
(22) andivi, BERZERK, Boozer, Chasm, dma-09, DOKTORBLACK88, milosdjor, Olethros, peppuzzo, rammmirez, ripper33, Rita, robertho777, RUSP73, smes, Torlof, undeadlich, VerminGhost, vov7609, xska, ZambuL, дивин,
Nov 5 2019, 21:09:01 Hertogenwald - Esprit Tellurique Primitif [demo] (2019)


*Artist: Hertogenwald
*Album: Esprit Tellurique Primitif [demo]
*Year: 2019
*Genre: Black Metal
*Country: France | Belgium
*Format: mp3@CBR320kbps
*Size: 76MB

Tracklist:
1. Purification (Introduction) 01:04
2. L'Haleine Du Marais 06:54
3. L'Oeil De L'Arbre 06:32
4. Anamnèse (Interlude) 02:14
5. L'Avertissement Du Crapaud 04:54
6. Réminiscence 08:09
7. Le Noir Chemin De L'Erèbe (Fin) 03:13
******************************
Total playing time: 33:00



[more=Extended info]France D'Oïl Productions,
September 21st.

CD-rip.
Exclusively for metalarea.[/more]

[more=Technical info]
Input File: 03 L'oeil de l'arbre.wav
Channels : 2
Sample Rate : 44100
Precision : 16-bit
Duration : 00:06:32.00 = 17287200 samples = 29400 CDDA sectors
File Size : 69.1M
Bit Rate : 1.41M
Sample Encoding: 16-bit Signed Integer PCM

[/more]

Register
(28) 1968_janeart, ahp, argh!, Beazth, Fatalist77791, Hell_Is_Here, Ildjarn, kim666, Krosis, lestllk, Ludwig Hagen, milosdjor, Moonshtook, NBM82855, NecroButcher, Olethros, Ostinato, RADeus, Rosen, satanist666, sethurius, SilentNidhogg, stub888, thenecromancer, VALERY, vasiljev_sergej, vovenom, Авел,
Nov 2 2019, 11:55:23 Occelensbrigg - Glacial Conjuration (2019)


*Artist: Occelensbrigg
*Album: Glacial Conjuration
*Year: 2019
*Genre: Raw Black Metal
*Country: Portugal
*Format: mp3@CBR320kbps
*Size: 92MB

Tracklist:
1. Glacial Conjuration 07:15
2. Bloodshed For The Rise Of Icelands 11:25
3. Pantheon Nemesis 12:40
4. Morwccelensbrigga 08:49
******************************
Total playing time: 40:09



[more=Extended info]Harvest Of Death,
November 1st.[/more]

[more=Technical info]
Input File: 03 Pantheon Nemesis.mp3
Channels : 2
Sample Rate : 44100
Precision : 16-bit
Duration : 00:12:39.11 = 33476795 samples = 56933.3 CDDA sectors
File Size : 30.4M
Bit Rate : 320k
Sample Encoding: MPEG audio (layer I, II or III)
Comments :
Title=Pantheon Nemesis
Artist=Occelensbrigg
Album=Glacial Conjuration
Tracknumber=3
Year=2019
Genre=Black Metal

[/more]

Register
(36) -=Hass=-, 1968_janeart, Alexis The Best, alikkon, Beazth, Boozer, cist, Evilded, FUDEDOR, garmonbozia, Hell_Is_Here, Ildjarn, kauyumari, kim666, Korpse, luxxul, morbidangelo, multizwilling, nemx, Olethros, Ostinato, Pinhead666, Rosen, satanist666, sethurius, SilentNidhogg, stub888, supremo, suseka, thenecromancer, VALERY, vasiljev_sergej, Vidder242, vovenom, wtk.412, Авел,
Nov 2 2019, 11:54:43 Frostmoon Eclipse - Worse Weather To Come (2019)


*Artist: Frostmoon Eclipse
*Album: Worse Weather To Come
*Year: 2019
*Genre: Black Metal
*Country: Italy
*Format: mp3@CBR320kbps
*Size: 102MB

Tracklist:
1. I See The Void 05:38
2. A Room, A Grave 05:36
3. All Is Undone 06:29
4. Sunken 05:47
5. Brother Denial 05:08
6. Sleep 04:38
7. Song To Darkness 05:09
8. Resignation 05:55
******************************
Total playing time: 44:20

Preview 1

[more=Extended info]Immortal Frost Productions,
October 25th.[/more]

[more=Technical info]
Input File: 03. Sunken.mp3
Channels : 2
Sample Rate : 44100
Precision : 16-bit
Duration : 00:05:47.79 = 15337539 samples = 26084.2 CDDA sectors
File Size : 13.9M
Bit Rate : 320k
Sample Encoding: MPEG audio (layer I, II or III)
Comments :
Title=Sunken
Artist=Frostmoon Eclipse
Album=Worse Weather To Come
Tracknumber=3/7
Year=2019
Genre=9
Discnumber=1/1

[/more]

Register
(50) -=Hass=-, 1968_janeart, alikkon, atavist, Beazth, Black Cat, canadaspaceman, cist, doomTemplar, eternald, garmonbozia, gena, Hefir, Hell_Is_Here, Ildjarn, isvili, judaz, kim666, Korpse, LEGION69, marilin, MMMMM, multizwilling, nadin85, Olethros, Ostinato, Razorbladeswaltz, Rosen, Rover, RUDACHUR, sandr666, satanist666, Shadechaser, SilentNidhogg, stub888, supremo, Surt, suseka, Taragorm, thenecromancer, the_cleanser, tim47, toly1917, VALERY, vasiljev_sergej, vovenom, whiteknight, wtk.412, yuratroll, Авел,
Oct 25 2019, 21:45:36 Asthenic Syn - Neuroleptic Strangulation (2019)
Мой скромный обзор на данную работу:

Самоизоляция как стадия внутреннего Ада. Противопоставление себя и своей боли паноптикуму двуногих тварей, что зовётся социумом. Тотальное отторжение окружающего мира как непригодного для контакта и поиски "спасения по следам, которые никуда не ведут". Нейролептики дают лишь видимость глубинных внутренних изысканий, на деле – лишают возможности поступать как личность, бросающаяся в крайности. Таблетки беспощадно дробят память, однако помогают выделить первостепенные моменты и обострить врезавшиеся в мозг безумные идеи: "Убей себя и кого-нибудь другого!" Весь мнимый и никоим образом не самоценный опыт был успешно стёрт и сброшен в пропасть, в отхожее место издевательско-плоского сознания. Одиночество. Замкнутость. Изолированность. Душевный морок как символ всех устремлений. "Привычный холод одинокого лезвия". Пустота. Пустота как фаза, пройденная многими, но не отрефлексированная должным образом: идея, не подвластная разуму, обилие разрозненных монохромных красок и понятий, не складывающихся в единое целое.

Свой личный, противопоставленный миру, Ад, искажающий восприятие себя относительно всех остальных, становится главенствующим, заполняет собой всё изолированное, "слишком знакомое, до тошноты омерзительное" пространство "в странгуляционном капкане". Тяжёлый и опустошающий опыт проживания тотального разочарования, боли, гнева, отчаяния – "жизнь, прогорклым комом застрявшая в глотке" как объективное восприятия реальности. Герметичный, замкнутый круг, зиждущийся на отвержении и абстрактных фантомах "шёпота прошедших лет" и унылого настоящего. Оголённый нерв и враждебность проецируется вовне, раскрывая границы осознания. Пустота, едким двуличным пеплом заволокшая поле битвы с самим собой. Жизнь давно превратилась в постоянную войну на уничтожение. Скитания в беспросветном отчаянии в попытках приблизиться к Выходу "в направлении к бессознательности", где измождённое тело будет отброшено как ненужная одежда – "к позору, к несчастью, к болезни… Путь предначертан". Утопия, обращённая в гранитную умбру. "Бетонные стены пространства" покрылись струпьями и язвами, пятнами тлена, странгуляционными полосами. Зверь выбрался из своего внутреннего заточения, преисполнился тёмной всеиспепеляющей ярости, и готов крушить ветхие "затворы телесной тюрьмы", ничтожные остатки разума, наполняя мир невообразимо жутким кошмаром. Плоть, испещрённая "чёрными иглами повседневности", мерзопакостно разлагается. Ледяная глотка разлилась хриплым пылающим жаром, дребезжа битым стеклом "до вкуса крови во рту". Куски надломленной индивидуальности на фоне серых, помрачневших лиц. Исторгнув "всё чужеродное из себя", можно засвидетельствовать лишь "хронический суицид в ДНК". Вокруг – торжество хаоса, насилия, лязгающего железа.

Грядущее не представляется торжествующим и цветущим Эдемом, а, скорее, наоборот – Содомом, в котором "в вымышленном блаженстве будет вершиться самосуд над собою". Время побеждает вечность, цивилизация восторжествовала, насилие над личностью непреодолимо, высшее творение природы вышло из-под её контроля, будущее катастрофично: "Вдребезги рушится очередной мир, разливаясь кровью через край". Мучительное, коллапсирующее, калечащее, останавливающееся, чтобы насладиться "хрустом костей под тяжёлым прессом безразличия ко всему живому", время. Время, отведённое на то, чтобы "построить свой склеп во имя одиночества" и "поставить свечу во имя отчаяния".

Изоляция и опустошение в полном их величии. Только исключительные люди, преодолев своё первичное отрицание ("Thy Flesh Consumed"), перейдут на второй этап осознания себя ("Neuroleptic Strangulation"), продолжат работать в сотворчестве со своей искалеченной душой, утверждая своим подлинным искусством мёртвое время, время констатации убожества и пустоты, время прозябания и застоя, время, вместе с хладной землёй засыпанное в могилы настоящего, в котором обнуляется любое существование.

Глубинной музыке, автором которой выступает Illwisher, возвращается её подлинная суть: не ублажать слух, но делать мир более объективным, вливая в него реальность, где "душу зажатую травит неврозами болезнь". Плотная индустриальная структура композиций задаёт общий угрюмый, не лишённый эпичности тон с обострённо-мрачными гитарными проходами. Фразировки и вокальные мелодии дополнены эффективным гитарным шреддингом и нервическими ритмами, базирующимися на главном диссонирующем риффе, который и движет ту или иную композицию вперед, подобно "импульсам нейронов, которые разъедают строму". Если прислушаться, на пластинке имеются и оркестровки, безмолвно парящие в фоновом режиме и выражающие непоколебимую преданность одному из ведущих проектов, входящих в состав Stavropol Nekrodivizion: гитары переплетаются в агрессивном и жутком рисунке так искусно и филигранно, что звучание отдельных частей напоминает потерянную мелодию нового творения Misanthropic Art (что, в общем-то, и понятно – продюсированием и микшированием записи занимался Садист).

К сожалению, большинство современных творцов способны выхватить из цельной действительности некий одномерный, а, следовательно, частичный смысл. Однако представители ставропольского объединения всегда умели "выхватить" и отобразить искалеченное бытие во всей его смысловой полноте и возможной структурности. Символический плюрализм "Нейролептического удушения" – в стремление передать немотствующее. Маргинальная образность Asthenic Syn – плод духовной общности, интерпретация мира вне нас, средство, к которому прибегает музыкант, хрупкое пристанище, в котором может укрыться его душа. Значение "Нейролептического удушения" в том, что с его помощью поэт способен вместить в произведение всю свою реальность и таким образом шаг за шагом обрести свою завершённость "под нависшим куполом гнетущего мрака".

Музыка не решает непосредственно проблем, стоящих перед лицом творческой личности, но даёт ей возможность продолжать творчество. Это нарочито-болезненная музыка искалеченной души, тоскующей во внутренней изоляции. От альбома к альбому проекты Stavropol Nekrodivizion переживают капитальную трансформацию: запись как будто оживает, некоторое время бьётся в судорогах и "исчезает прочь из этого измерения". Стоит отметить, что "Нейролептическое удушение" умело рассеивает внутри слушателя вирусы отчаяния, тоски, ненависти, которыми всегда так славились все проекты ставропольского объединения.

Страдания необходимы и неизбежны. Боль благотворна, и не стоит искать покоя во всевозможных благостных утопиях, а всячески избегать их. Всевозможные душевные терзания угнетают личность, но творческая сила страданий так же неиссякаема, как неиссякаем их источник. Возможно, изоляция, боль – самые положительные идеи современности. Потому что только они не лгут, являясь своеобразной лакмусовой бумажкой, реагирующей на то, насколько сильно внутри проросли семена безразличия и пресности.
Чрезмерно жестокий, технически сверхорганизованный, переиндустриализованный, самоускоряющийся альбом. "Нейролептическое удушение" – агонизирующее озарение, мощь болезненного провидения, проникновение в заветную суть изувеченного бытия. Хроматический ряд отчаяния, в который уже заключено постижение первопричин отчаяния. Не слушайте Asthenic Syn – слушайте ту боль, которая за ним. "Выпусти боль, раскрой миру сердце, / Выпусти гнев, ион за ионом, выпусти жизнь..."

Оригинал поста в соцсети
(27) ahp, babanguida, BERZERK, Branis, CRUNCH, defamer666, dorn1, dsp, Evilded, FullofHate, HA7tur, infiltrator, kim666, Malzus, mirotvorets, NOMIDIMON, RADeus, recber, RENыч, sacrut, sethurius, snorr, SSorcerer, VerminGhost, vosmidesijatye, vovenom, Авел,
Oct 25 2019, 21:09:39 Asthenic Syn - Neuroleptic Strangulation (2019)


*Artist: Asthenic Syn
*Album: Neuroleptic Strangulation
*Year: 2019
*Genre: Black Metal
*Country: Russian Federation
*Format: mp3@CBR320kbps
*Size: 147MB

Tracklist:
1. In Abstinentia Dissolution 09:01
2. Knee-deep in the Needles 07:19
3. Psychasthenic Metamorphosis 07:02
4. Depersonalization Anxietas 06:38
5. Neuroleptic Strangulation 07:22
6. Desolated Colours of Life 05:52
7. Cold Embrace of Death 08:52
8. Kodokushi. Revelation 12:10
******************************
Total playing time: 1:04:16



[more=Extended info]Cold Breath of Silence,
October 25th.

Матовый дигипак с буклетом и стикером лимитирован 300 копиями.

BUY CD:
https://vk.com/sndprod
https://vk.com/coldbreathofsilence[/more]

[more=Technical info]
Input File: 05 - Neuroleptic Strangulation.mp3
Channels : 2
Sample Rate : 44100
Precision : 16-bit
Duration : 00:07:22.67 = 19521703 samples = 33200.2 CDDA sectors
File Size : 17.7M
Bit Rate : 320k
Sample Encoding: MPEG audio (layer I, II or III)
Comments :
Title=Neuroleptic Strangulation
Artist=Asthenic Syn
Album=Neuroleptic Strangulation
Tracknumber=05
Year=2019
Genre=Black Metal

[/more]

Register
(100) -=Hass=-, 1968_janeart, acerbus, ahp, aimtoknow, alikkon, andeimon, Aresson, argh!, artscald, Ash_1980, babanguida, Bekkerev, BERZERK, Boozer, Branis, caro, CRUNCH, defamer666, dermarsoran, dorn1, Evilded, Femto, Fess, Forest Silence, Forrrrest, Fryz, FullofHate, garmonbozia, Guns, HA7tur, Hell_Is_Here, Hostis, HviteGuden, Ildjarn, Indamage, Infidel, infiltrator, isvili, judaz, Kazoth, kim666, Krosis, KVRT, Lafii, lestllk, let4ikmiha, lordbathor, Lux, Malzus, metaljinie, milosdjor, mirotvorets, MMMMM, Moonshtook, multizwilling, nadin85, Nerevar, nikolay81, Old Vyaine, older68, oldvarg, Olethros, Ostinato, Pinhead666, Premature_Devotion, rabindranad, Radogast, Radwind, Ramcheg1981, randumbum, recber, RENыч, ripper33, Rosen, Rover, sacrut, satanist666, sethurius, SilentNidhogg, Surt, SyncestrA, TDM, technoboy69, thenecromancer, Tino, toly1917, tOmV, VALERY, vasiljev_sergej, VerminGhost, Vitald, vovenom, Wolfera, yuratroll, ZambuL, Авел, Волос, металлист, Нигилист,
Oct 24 2019, 18:13:07 Black Abyss - The Devilish Creation [ep] (2019)


*Artist: Black Abyss
*Album: The Devilish Creation [ep]
*Year: 2019
*Genre: Black Metal
*Country: Malaysia
*Format: mp3@CBR320kbps
*Size: 58MB

Tracklist:
1. Sangre... 02:34
2. Devilish Creation 03:50
3. Blackmoon 03:04
4. Serpent Of Old 03:15
5. Mantra 03:37
6. Embrace The Forbidden 02:56
7. Taste The Evil 03:44
8. Malum... 02:23
******************************
Total playing time: 25:23



[more=Extended info]Monument Of Misanthropy

CDr-Rip[/more]

[more=Technical info]
Input File: 02 - Devilish Creation.mp3
Channels : 2
Sample Rate : 48000
Precision : 16-bit
Duration : 00:03:49.90 = 11035344 samples ~ 17242.7 CDDA sectors
File Size : 9.20M
Bit Rate : 320k
Sample Encoding: MPEG audio (layer I, II or III)
Comments :
Title=Devilish Creation
Artist=Black Abyss
Album=The Devilish Creation
Tracknumber=2
Year=2019

[/more]

Register
(30) 1968_janeart, ahp, artscald, Daale, Hell_Is_Here, Ildjarn, infiltrator, JantoHadez, kauyumari, kim666, Korpse, LVXXVL, maringlen, Occultas, Olethros, Ostinato, Razorbladeswaltz, rickzammuto, robertho777, Rosen, sacrut, satanist666, SilentNidhogg, THROWER666, VALERY, vasiljev_sergej, vovenom, Wail, Авел, Волос,
Oct 22 2019, 18:29:09 Hell Konfessor - Hell Konfessor (2019)


*Artist: Hell Konfessor
*Album: Hell Konfessor
*Year: 2019
*Genre: Black Metal
*Country: Brazil
*Format: mp3@VBR247kbps
*Size: 51MB

Tracklist:
1. When The Wolves Reign The Land Of Lakes (Intro) 00:32
2. Hell Konfessor 05:00
3. Inferno Astral 04:35
4. Consternation 01:39
5. Shadows In Your Creation 03:23
6. Hill Of Lost Souls 04:14
7. Speaking Alone In Ancient Language 01:34
8. In Constant Devotion 06:31
9. Vulto Nocturno 01:32
******************************
Total playing time: 29:00



[more=Extended info]Klaxon[/more]

[more=Technical info]
Input File: 04 Consternation.mp3
Channels : 2
Sample Rate : 44100
Precision : 16-bit
Duration : 00:01:39.19 = 4374103 samples = 7438.95 CDDA sectors
File Size : 3.09M
Bit Rate : 249k
Sample Encoding: MPEG audio (layer I, II or III)
Comments :
Title=Consternation
Artist=Hell Konfessor
Album=Hell Konfessor
Tracknumber=04/9
Year=2019
Genre=Black Metal

[/more]

Register
(27) 1968_janeart, acerbus, artscald, Brann, craP_cillA, FUDEDOR, Hell_Is_Here, Ildjarn, Kehl05, kim666, lestllk, LVXXVL, multizwilling, Occultas, Olethros, Rosen, Rover, satanist666, scorpionmk, sethurius, SilentNidhogg, smysl, toly1917, VALERY, vasiljev_sergej, vovenom, Wail,
Oct 22 2019, 18:17:22 Havohej - Table Of Uncreation (2019)


*Artist: Havohej
*Album: Table Of Uncreation
*Year: 2019
*Genre: Black Metal
*Country: United States
*Format: mp3@CBR320kbps
*Size: 68MB

Tracklist:
1. God Of All Constellation 05:30
2. Holy Blood, Holy Grail 01:16
3. The Black King 03:54
4. Seven Jinn 03:35
5. Impossible Force 02:53
6. Table Of Uncreation 03:52
7. All Time Is Now 04:20
8. Before Them And Behind Them 01:30
9. Fatir 02:41
******************************
Total playing time: 29:31



[more=Extended info]Hells Headbangers Records,
November 15th.

Exclusively for metalarea.[/more]

[more=Technical info]
Input File: 02 - Holy Blood Holy Grail.mp3
Channels : 2
Sample Rate : 44100
Precision : 16-bit
Duration : 00:01:15.89 = 3346881 samples = 5691.97 CDDA sectors
File Size : 3.04M
Bit Rate : 320k
Sample Encoding: MPEG audio (layer I, II or III)
Comments :
Title=Holy Blood Holy Grail
Artist=Havohej
Album=Table Of Uncreation
Tracknumber=02
Year=2019
Genre=Black Metal

[/more]

Register
(99) -=Hass=-, 1968_janeart, A.L.Rapsod, acerbus, ahp, alikkon, Anhra Mainyu, artscald, babanguida, Beazth, biroutios, Boozer, cancer1974, caro, craP_cillA, Daale, dermarsoran, desekrator, DFaust, Evilded, Femto, Fess, FlammenTod666, Forrrrest, ForzaMinardi1977, Fryz, FUDEDOR, fuoco, gena, HA7tur, Hell_Is_Here, helvetestoner, HviteGuden, Infidel, jorgeguldur, judaz, kauyumari, kim666, kimkayoung, lafuma, Lamby90, LazarShadow, lestllk, Lord Noctua, lordbathor, lucifix, LVXXVL, Metalass, metaljosue, mizantrophist, MMMMM, Moonshtook, MP101M, multizwilling, nadin85, nekro2007, nemx, nikolay81, oldvarg, Olethros, pothead, Radek, Razorbladeswaltz, Reverend, ripper33, robertho777, Rosen, Rover, RUSP73, sacrut, SadistikSlayer, Samaritianin, sandr666, satanist666, scorpionmk, sethurius, SilentNidhogg, smysl, SSWolf88, StabWound, stub888, stumpheavyrock, supremo, Surt, suseka, the_cleanser, Thunderbird, toly1917, vader69, VALERY, vasiljev_sergej, VECTOR, Vidder242, Wail, wgs73, wolverine, wtk.412, Xron, ZA670,
Sep 23 2019, 21:12:05 Inferno Requiem - Shanhai (2019)


*Artist: Inferno Requiem
*Album: Shanhai
*Year: 2019
*Genre: Black Metal
*Country: Taiwan | Japan
*Format: mp3@CBR320kbps
*Size: 91MB

Tracklist:
1. Lost Clan, Wrath Of Forsaken Beast 05:15
2. Shanhai (Grand Rage From Mountain And Sea) 04:46
3. Toward The Mystic Gate Of The Sun 04:53
4. Sacred Throne With Serpent Totem 04:38
5. The Investiture II; Spear Of Anarchy 04:12
6. Ghost Of Coldness And Despair 04:08
7. Shadow Lurking In Obscured Ruin 04:24
8. Dying Star - The Villains Elegy 07:00
******************************
Total playing time: 39:16



[more=Extended info]Elderblood Productions[/more]

[more=Technical info]
Input File: 02 Shanhai (Grand Rage from Mountain and Sea).mp3
Channels : 2
Sample Rate : 44100
Precision : 16-bit
Duration : 00:04:46.11 = 12617363 samples = 21458.1 CDDA sectors
File Size : 11.4M
Bit Rate : 320k
Sample Encoding: MPEG audio (layer I, II or III)
Comments :
Title=Shanhai (Grand Rage from Mountain and Sea)
Artist=Inferno Requiem
Album=SHANHAI
Tracknumber=2
Year=2019

[/more]

Register
(26) 1968_janeart, ahp, alikkon, artscald, atavist, Forest Silence, horss, Ildjarn, infiltrator, kim666, legion01, LEGION69, maringlen, nemx, Olethros, Ostinato, randumbum, Razorbladeswaltz, robertho777, Rosen, satanist666, SilentNidhogg, VALERY, vasiljev_sergej, wreak, Авел,
Sep 19 2019, 21:29:39 Blut Aus Nord - Hallucinogen (2019)
ЦИТАТА(mardak666 @ Sep 19 2019, 23:01:43) *
Залейте на нормальный обменник

Пожалуйста,
Register

no limits
(4) Golodomor, infernallord, infiltrator, mardak666,
Sep 15 2019, 16:03:26 Flail - Flail [ep] (2019)


*Artist: Flail
*Album: Flail [ep]
*Year: 2019
*Genre: Black Metal
*Country: Finland
*Format: mp3@VBR312kbps
*Size: 29MB

Tracklist:
1. Silent Depths
2. Darkened Morrow Of The Cold Marsh
******************************
Total playing time: 12:52



[more=Extended info]Avgrundsklanger,
limited to 200 copies.[/more]

[more=Technical info]
Input File: 01 - Silent Depths.mp3
Channels : 2
Sample Rate : 44100
Precision : 16-bit
Duration : 00:06:32.28 = 17299548 samples = 29421 CDDA sectors
File Size : 15.2M
Bit Rate : 310k
Sample Encoding: MPEG audio (layer I, II or III)
Comments :
Title=Silent Depths
Artist=Flail
Album=Flail
Tracknumber=01/2
Year=2019
Genre=Black Metal

[/more]

Register
(29) 1968_janeart, ahp, artscald, Ildjarn, infiltrator, Kalnasra, kim666, lestllk, lucifix, MAMARINA, Mannard, marilin, maringlen, mondblut, NachtWulf, nemx, Olethros, Ostinato, randumbum, Razorbladeswaltz, robertho777, Rosen, satanist666, SilentNidhogg, stub888, thenecromancer, VALERY, vasiljev_sergej, wreak,
Sep 13 2019, 21:06:09 Vinterriket - Nachtfülle (2019)


*Artist: Vinterriket
*Album: Nachtfülle
*Year: 2019
*Genre: Ambient
*Country: Germany
*Format: mp3@CBR320kbps
*Size: 138MB

Tracklist:
1. I 10:54
2. II 12:12
3. III 11:59
4. IV 11:22
5. V 13:53
******************************
Total playing time: 1:00:20



[more=Extended info]Aphelion Productions

Спектр - обычный для ambient-записей.[/more]

[more=Technical info]
Input File: 03 - Vinterriket - Nachtfülle III.mp3
Channels : 2
Sample Rate : 44100
Precision : 16-bit
Duration : 00:11:58.58 = 31689202 samples = 53893.2 CDDA sectors
File Size : 28.7M
Bit Rate : 320k
Sample Encoding: MPEG audio (layer I, II or III)
Comments :
Title=Nachtfülle III
Artist=Vinterriket
Album=Nachtfülle
Tracknumber=03
Year=2019
Genre=Ambient

[/more]

Register
(51) A.L.Rapsod, ahp, BERZERK, BleedingSun, Boozer, cancer1974, dromord, Forest Silence, fylopaloma, garmonbozia, Grimmsberg, heinz88, Infidel, infiltrator, Jackyl, juanguillermo13, kim666, KKK1488, Konst, Krosis, Kwaad, Leiche, lucifix, Luminous, NappyRob, nsk2008, nsmetalhead, oldvarg, Olethros, recber, ripper33, satanist666, scorn33, sethurius, Sternennacht, stone88, stub888, tamerz, TemnyLes, thenecromancer, the_cleanser, tOmV, Tular, Un4given, wtk.412, Xron, yuratroll, ZA670, Zahrim, zargonath, zoog,

274 Pages V   1 2 3 > » 
- Lo-Fi Version Support form
Copyrights and abuse reports form
Time is now: 13th December 2019 - 22:28:24