Welcome Guest ( Log In | Register )

История благодарностей участнику Абигор ::: Спасибо сказали: 117553 раз(а)
Дата поста: В теме: За сообщение: Спасибо сказали:
May 4 2021, 18:16:24 Empire Of Tharaphita - Distant Echoes Through Blood Infinite [compilation] (2018)
Отражение -
Register
(7) andivi, infiltrator, Moonshtook, suseka, thenecromancer, vasiljev_sergej, wendigo,
May 4 2021, 15:59:02 Trest - Ordalium (2019)


*Artist: Trest
*Album: Ordalium
*Year: 2019
*Genre: Black Metal
*Country: Germany
*Format: mp3@CBR320kbps
*Size: 124MB

Tracklist:
1. 1st Witch: Horne (Ordeal Version) 05:25
2. 2nd Witch: Debaraz (Ordeal Version) 03:56
3. 3rd Witch: Zdunk (Ordeal Version) 05:56
4. 4th Witch: Palles (Ordeal Version) 02:58
5. 5th Witch: Gesche (Ordeal Version) 07:58
6. 1st Witch: Horne (Pyre Version) 05:25
7. 2nd Witch: Debaraz (Pyre Version) 03:54
8. 3rd Witch: Zdunk (Pyre Version) 05:58
9. 4th Witch: Palles (Pyre Version) 02:58
10. 5th Witch: Gesche (Pyre Version) 07:58
******************************
Total playing time: 52:26



[more=Extended info]Звуки, достойные гулких крипт, сферической волной отскакивают от мозглых стен, резонируют в тесноте подземных горловин. Вороны, собравшиеся рядом со своими мёртвыми сородичами, пронзительно кричат, требуя ниспослать и на головы жалких профанов всевозможные несчастья. Им вторят роящиеся у падали мухи, посланники нечисти. Malleus Maleficarum, крушащий саму жизнь, во имя торжества ереси и ведовства.

Экслюзивно для портала.[/more]

[more=Technical info]
Input File: 05 - 5th Witch - Gesche (Ordeal Version).mp3
Channels : 2
Sample Rate : 44100
Precision : 16-bit
Duration : 00:07:58.09 = 21083901 samples = 35857 CDDA sectors
File Size : 19.1M
Bit Rate : 320k
Sample Encoding: MPEG audio (layer I, II or III)
Comments :
Title=5Th Witch - Gesche (Ordeal Version)
Artist=Trest
Album=Ordalium
Tracknumber=05/10
Year=2019
Genre=Black Metal

[/more]

Register
(27) atavist, caro, dermarsoran, infiltrator, judaz, Marek, Maximvs, Messian, Moonshtook, Occultas, Olethros, Ostinato, Panacea, rimfrost, Rover, sacrut, SaintVitus, satanist666, sethurius, SilentNidhogg, suseka, SyncestrA, unit731, VALERY, vasiljev_sergej, Veggr, V_H_H_V,
May 2 2021, 18:19:23 Clandestine Blaze - Secrets Of Laceration (2021)
Зеркала (в т.ч. прямые линки):
Register
(8) 666days, Korpse, Moonshtook, multizwilling, NOMIDIMON, suseka, thenecromancer, VALERY,
May 2 2021, 16:27:49 Ildskær - Paa Dækket Kalder De Døde [ep] (2021)
Отражение -
Register
(8) gena, infiltrator, kimkayoung, Marek, Moonshtook, rimfrost, robertho777, vasiljev_sergej,
May 2 2021, 15:58:54 Cresset - Obscurantism (2021)
Отражение -
Register
(3) infiltrator, robertho777, vasiljev_sergej,
May 2 2021, 15:58:26 Cresset - Conqueror Worm [ep] (2017)
Отражение -
Register
(2) infiltrator, vasiljev_sergej,
May 2 2021, 15:55:56 А За Солнцем Луна... - На Метле К Звёздам (On A Broom To The Stars) (2021)
Отражение -
Register
(4) infiltrator, Moonshtook, multizwilling, vasiljev_sergej,
May 2 2021, 15:51:46 Blessings Cremation (Кремация Блаженных) - Sozhzhenie (Сожжение) (1993)
Отражение -
Register
(3) infiltrator, Moonshtook, vyacheslav,
May 2 2021, 15:49:13 Spectral Corruption - Promo 2021 [demo] (2021)
Отражение -
Register
(3) infiltrator, SileniusLegard, vasiljev_sergej,
May 2 2021, 15:47:06 Ruohtta - Gutna (2021)
Отражение -
Register
(4) infiltrator, rimfrost, undeadlich, vasiljev_sergej,
May 2 2021, 15:41:45 Salvation - Resistance (2021)
Отражение -
Register
(6) infiltrator, multizwilling, nemx, SileniusLegard, vasiljev_sergej, wendigo,
May 2 2021, 15:39:50 Daemonlust - Death, The Heart Of Satan (2020)
Отражение -
Register
(4) infiltrator, multizwilling, vasiljev_sergej, Wotanwatch,
May 2 2021, 15:10:05 Sirpinmurtaja - Sirpinmurtaja (2021)
Отражение -
Register
(5) demonosz, infiltrator, multizwilling, nemx, vasiljev_sergej,
May 2 2021, 15:07:38 Mooncitadel - Onyx Castles And Silver Keys [ep] (2021)
Отражение -
Register
(13) andivi, Antichrist, demonosz, infiltrator, Moonshtook, multizwilling, Narasimha, nemx, orgondnor, satanist666, undeadlich, vasiljev_sergej, ZambuL,
Feb 15 2021, 18:49:37 Livets Ångest - Livets Ångest (2021)
п. 2.4 правил:

ЦИТАТА
В названии архива ОБЯЗАТЕЛЬНО должен присутствовать либо Ваш ник на metalarea.org, либо само название портала "metalarea.org", чтобы сомнений в Вашем авторстве ссылок у модераторов не возникало. Иначе релиз будет отправлен в "Find Area", где будет дожидаться человека, способного собственноручно отзеркалить его и переоформить под своим именем.
(1) Occultas,
Feb 14 2021, 21:49:08 Yaşru - Kar Prensesi (2021)
Ujepoşral 14.gif
(14) goxther, infiltrator, Ironcast, ironman2002, kostja, Larsuk, mardak666, Metalass, nsk2008, Penetralia, russ777, Storky, stub888, Surt,
Feb 14 2021, 21:20:33 Yahwist - Бурая Реальность [demo] (2021)
Оголтело-гнусная свистопляска на углях духовности, обнажающая перверсии и уродства, кульминацией которой станет смрадная выгребная яма. Суть - фантомы, реальность - доморощенная иллюзия, выбраковывающая лишь заурядное...
(2) NOMIDIMON, vosmidesijatye,
Feb 14 2021, 18:20:34 Perdition Hearse - Mala Fide [compilation] (2019)


*Artist: Perdition Hearse
*Album: Mala Fide [compilation]
*Year: 2019
*Genre: Black Metal
*Country: Norway
*Format: mp3@CBR320kbps
*Size: 88MB

Tracklist:
1. Mala Fide (Introduction) 01:10
2. My Ancient Gods (Behind Them All) 03:31
3. Fanitullen 03:33
4. Cerberos Leads Us Through 04:14
5. The Stealthy Beyond Death 04:10
6. We All Die! 04:27
7. Blood Feast 07:23
8. Persecuting Precursors 05:15
9. Gloomy, Rotten Skeleton 03:41
******************************
Total playing time: 37:24



[more=Extended info]Nuclear War Now! Productions[/more]

[more=Technical info]
Input File: 06 - We All Die!.mp3
Channels : 2
Sample Rate : 44100
Precision : 16-bit
Duration : 00:04:26.67 = 11759971 samples = 20000 CDDA sectors
File Size : 10.7M
Bit Rate : 320k
Sample Encoding: MPEG audio (layer I, II or III)
Comments :
Title=We All Die!
Artist=Perdition Hearse
Album=Mala Fide
Tracknumber=6/9
Year=2020
Genre=Black Metal

[/more]

Register
(26) acerbus, Antichrist, Bzth, caro, cist, El_Chibo, Forcerecon1, Ildjarn, infiltrator, Kazoth, kim666, kryptor, maringlen, Olethros, randumbum, Razorbladeswaltz, SilentNidhogg, Sjelekval, smysl, supremo, Taakeferd, thenecromancer, undeadlich, VALERY, varlam4, wreak,
Feb 14 2021, 18:08:45 Anguis Dei - Angeist (2021)


*Artist: Anguis Dei
*Album: Angeist
*Year: 2021
*Genre: Symphonic Black Metal
*Country: Japan
*Format: mp3@VBR278kbps
*Size: 91MB

Tracklist:
1. Bortenfor Grensen 05:31
2. Through The Aperture Of Time 04:52
3. Angela Krudeliis Ambitiosa Nokturniis 05:52
4. Angeist 06:42
5. The Darkenbound 01:55
6. L'autre Serpent 05:34
7. Separation Of Æthyr 06:02
8. Wrestoration 08:05
******************************
Total playing time: 44:33



[more=Extended info]Drakkar Productions,
January 31st.

Anguis Dei is part of AAAA collective (Arkha Sva, Ahpdegma, Avsolutized...)

Exclusively for metalarea.[/more]

[more=Technical info]
Input File: Drakkar Productions - ANGUIS DEI - Angeist - 04 Angeist.mp3
Channels : 2
Sample Rate : 44100
Precision : 16-bit
Duration : 00:06:42.96 = 17770712 samples = 30222.3 CDDA sectors
File Size : 13.9M
Bit Rate : 275k
Sample Encoding: MPEG audio (layer I, II or III)
Comments :
Title=Angeist
Artist=Anguis Dei
Album=Angeist
Tracknumber=4
Year=2020
Genre=Black Metal

[/more]

Register
(44) acerbus, AHBAnep, AlexSmith, Astralgeist, atavist, avather, cesar, cist, demonosz, El_Chibo, Ildjarn, infiltrator, kim666, Lamby90, Lukittaz, metala, MMMMM, Mogozoz, multizwilling, Narasimha, Occultas, oldvarg, Olethros, Orgasmik, Ostinato, postal67, randumbum, robertho777, SaintVitus, sergsazan, Shadechaser, suseka, symphonicadiction, Taakeferd, undeadlich, VALERY, varlam4, vasiljev_sergej, Veggr, Velmi, wreak, yuratroll, zhol, Сварог Барг,
Feb 14 2021, 14:06:57 Yahwist - Бурая Реальность [demo] (2021)


*Artist: Yahwist
*Album: Бурая Реальность [demo]
*Year: 2021
*Genre: Raw Black Metal/Punk
*Country: Russian Federation
*Format: mp3@CBR320kbps
*Size: 23MB

Tracklist:
1. Черный сад 02:04
2. Брутализм 01:05
3. Яхве наказал 01:12
4. Тщетные вопросы 01:33
5. Бурая реальность 00:52
6. Уроборос 01:22
******************************
Total playing time: 8:08



[more=Extended info]Horrible Room,
Limited to 25 copies[/more]

[more=Technical info]
Input File: Yahwist - Бурая Реальность - 05 Бурая Реальность.mp3
Channels : 2
Sample Rate : 44100
Precision : 16-bit
Duration : 00:00:51.54 = 2273002 samples = 3865.65 CDDA sectors
File Size : 2.06M
Bit Rate : 320k
Sample Encoding: MPEG audio (layer I, II or III)
Comments :
Title=Бурая Реальность
Artist=Yahwist
Album=Бурая Реальность
Tracknumber=5
Year=2020

[/more]

Register
(11) infiltrator, maringlen, Olethros, randumbum, Razorbladeswaltz, Taakeferd, VALERY, varlam4, Veggr, WOLAND, wreak,
Jan 18 2021, 20:58:36 Urghar Moork - Begeesterd Door Den Bozen [demo] (1998)
Там фигурирует другое демо:

https://www.metal-archives.com/albums/Urgha...Menschdom/75711

А на архивах в Additional discography значится это демо 1998 года.
(4) INDARKNESS, infiltrator, thenecromancer, WOLAND,
Dec 24 2020, 20:15:11 Hate Forest - Hour Of The Centaur (2020)
Відображення -

Register
(25) andeimon, boby9052, carla667, Daale, DMIYUR, Femto, Fess, Forest Silence, infiltrator, KKK1488, Ludwig Hagen, MMMMM, Moonshtook, multizwilling, MushroomGoat, Occultas, Ostinato, recber, Shadechaser, Spunkynut, suseka, system36, thenecromancer, Torlof, WOLAND,
Dec 20 2020, 13:23:05 Коса - Rehearsal 19.06.19 [demo] (2020)
Added links by Cramloth
(2) Cramloth, WOLAND,
Dec 6 2020, 21:06:03 Рекорды очереди премодерации релизов
as71, подправил стиль и перенес в Unformat.
(2) as71, WOLAND,
Nov 22 2020, 15:17:56 Circle Of Ouroborus - Viimeinen Juoksu (2020)


Circle Of Ouroborus - 2020 - Viimeinen Juoksu (Digipak CD)
New Era Productions

BUY CD

CD-Rip (Lame 3.93.1 Stereo)
Register


CD-Rip (FLAC)
Register
(9) acerbus, BelfegoR13, diablo_vtx, ent404, eternald, kimkayoung, makkara123, r721, Rudolfo_Metal,

279 Pages V   1 2 3 > » 
- Lo-Fi Version Support form
Copyrights and abuse reports form
Time is now: 9th May 2021 - 06:07:29