Welcome Guest ( Log In | Register )

История благодарностей участнику Абигор ::: Спасибо сказали: 115214 раз(а)
Дата поста: В теме: За сообщение: Спасибо сказали:
Jun 14 2020, 18:09:02 Black Goat - Dominion Of Fire (2020)


*Artist: Black Goat
*Album: Dominion Of Fire
*Year: 2020
*Genre: Black Metal
*Country: Russian Federation
*Format: mp3@CBR320kbps
*Size: 85MB

Tracklist:
1. Dreams After Death / Nekromaniak 05:40
2. Venefica 04:04
3. Uttuku 04:33
4. The Darkest Mysteries 04:24
5. Wrath Of The Damned 04:08
6. Into Eternal Damnation 03:25
7. Angel Of Death 05:11
8. Dominion Of Fire 05:24
******************************
Total playing time: 36:49



[more=Extended info]Iron, Blood & Death Corporation,
June 10th.

Старорежимный Black Metal в духе Hellhammer, Mortuary Drape и Necromantia. В записи принимали участие Kapala King V (Disharmony) и Mutilator (Varathron, Rotting Christ).

Exclusively for metalarea.[/more]

[more=Technical info]
Input File: 08 - Black Goat - Dominion Of Fire.mp3
Channels : 2
Sample Rate : 44100
Precision : 16-bit
Duration : 00:05:24.75 = 14321299 samples = 24356 CDDA sectors
File Size : 13.0M
Bit Rate : 320k
Sample Encoding: MPEG audio (layer I, II or III)
Comments :
Title=Dominion Of Fire
Artist=Black Goat
Album=Dominion Of Fire
Tracknumber=08
Year=2020
Genre=Black Metal

[/more]

Register
(89) -=Hass=-, 1968_janeart, acerbus, aimtoknow, Alpha_Prime, andeimon, Aresson, Ash_1980, atavist, BERZERK, Branis, cesar, cist, Constantinus I, CRUNCH, Daale, DarkHorde, dermarsoran, El_Chibo, eternald, Evilded, Fess, garmonbozia, gena, Golodomor, Hefir, Hell_Is_Here, Infidel, infiltrator, Ingvar, judaz, kauyumari, kim666, KNessJM, KVRT, LazarShadow, lestllk, Ludwig Hagen, maringlen, MikaelBox, mirotvorets, Mist13Signifier, mizantrophist, Moonshtook, morbidangelo, multizwilling, nadin85, Nerevar, nsk2008, Occultas, older68, oldvarg, Olethros, Ostinato, Pinhead666, randumbum, Raw1488, Razorbladeswaltz, recber, RENыч, ripper33, robertho777, Rodin, sabr, sacrut, Sanctus, satanist666, scorn33, Shadechaser, SilentNidhogg, Skog1349, Slavas, smysl, spazm, SS2998, Surt, thenecromancer, Tino, tireheb, VALERY, varlam4, vasiljev_sergej, Vitald, vovenom, Wail, ZambuL, Авел, металлист, Нигилист,
Jun 9 2020, 20:57:05 Black Candle Wax - Crematorium [demo] (2020)


*Artist: Black Candle Wax
*Album: Crematorium [demo]
*Year: 2020
*Genre: Black Metal
*Country: United States
*Format: mp3@CBR320kbps
*Size: 49MB

Tracklist:
1. Ash Of Root 01:36
2. Met With Death 03:44
3 Coffer of Bones 03:10
4. Dark Sigils 04:30
5. Hangman's Hood 03:24
6. Balcony 02:58
7. Relief From Mortal Shackles 01:30
******************************
Total playing time: 20:52



[more=Extended info]Odd Memory

Tape-rip by toooooomb[/more]

[more=Technical info]
Input File: 04. Dark Sigils.mp3
Channels : 2
Sample Rate : 44100
Precision : 16-bit
Duration : 00:04:30.20 = 11915776 samples = 20264.9 CDDA sectors
File Size : 10.8M
Bit Rate : 320k
Sample Encoding: MPEG audio (layer I, II or III)
Comments :
Title=Dark Sigils
Artist=Black Candle Wax
Album=Crematorium
Tracknumber=4
Year=2020
Genre=Black Metal

[/more]

Register
(40) 1968_janeart, acerbus, Alexis The Best, andivi, Bekkerev, Boozer, Bzth, Daale, Disgorge666, El_Chibo, garmonbozia, gena, grimoir, Hell_Is_Here, Ildjarn, infiltrator, kim666, Krosis, multizwilling, obituarydark, Occultas, Olethros, Ostinato, Panacea, RADeus, randumbum, Razorbladeswaltz, ripper33, robertho777, Rosen, Sangreal, satanist666, sethurius, SilentNidhogg, stub888, thenecromancer, VALERY, varlam4, vasiljev_sergej, Wail,
Jun 9 2020, 12:42:02 Branikald - The Strings Of Inspiration Sing (2000)
Reissue 2020.
320 CBR [Lame 3.93.1] | 102 MB
Register
(5) Aresson, lordbathor, LVXXVL, STN, varlam4,
Jun 7 2020, 20:53:36 Anchoreth - Гимн Анахорету [demo] (2005)
Reuploaded for now.
(4) Borderline1991, Slavas, thenecromancer, Wail,
Jun 5 2020, 21:31:55 Barathrum - Fanatiko (2017)
Эксгумировал
Register
(1) MadCarrot,
May 22 2020, 20:01:00 (Dolch)

Genre:
Drone/Doom/Black Metal
Lyrical Theme(s):
Occultism, Rituals, Hell, Death
Origin:
Germany (Berlin)
Formed In:
2014
Status:
Active
Current Line-Up:
A - Bass
Arne - Guitars, Vocals, Programming
Pierre - Piano

Discography:
(Dolch) - Demo I [demo] - 2014
(Dolch) - Licht. Maschine. Herz. [ep] - 2015
(Dolch) - I & II [compilation] - 2015
(Dolch) & King Dude - Our Love Will Carry On/Riding With The King [split] - 2016
(Dolch) & King Dude & Caronte & The Ruins Of Beverast - King Dude | Caronte | The Ruins Of Beverast | (Dolch) [split] - 2017
(Dolch) - An Den Mond [single] - 2017
(Dolch) - III: Songs Of Happiness... Words Of Praise [ep] - 2017
(Dolch) - Psalm 7 [single] - 2019
(Dolch) - Feuer [full-length] - 2019

*****
Official Site:
(Dolch) @ Official Page
(2) Borderline1991, thenecromancer,
May 21 2020, 19:09:48 Esoctrilihum (4) Borderline1991, Chasm, Occultas, satanist666,
May 18 2020, 20:38:29 Neige Morte - IIII (2020)
Added links by tobacco
(1) Occultas,
May 16 2020, 20:11:07 Wodensthrone - Curse (2012)
320 kbps
Register
(4) Korpse, MadCarrot, thenecromancer, varlam4,
May 14 2020, 17:29:29 Binary Code - Memento Mori (2020)
320 kbps
Register
(4) infiltrator, infozahist, Morgoth, okarodb,
May 14 2020, 15:46:00 Smaug - Open My Grave (2020)


*Artist: Smaug
*Album: Open My Grave
*Year: 2020
*Genre: Black Metal
*Country: Russian Federation
*Format: mp3@CBR320kbps
*Size: 65MB

Tracklist:
1. Interlude Part I 01:38
2. Obeisance 01:11
3. Death Yell 03:42
4. Death Masturbator 04:41
5. Intro Part II 02:12
6. Leaden Waters 05:36
7. They... From Other Worlds 04:22
8. Open My Grave 05:19
******************************
Total playing time: 28:41



[more=Extended info]Nomos Dei Productions SS - XLV

Smaug – это новое порождение русского Андеграунда. Группа, за которой стоят как ветераны, так и молодая кровь отечественного Подземелья. Особенностью группы является то, что состав держится в строжайшем секрете. Подобно некоторым тайным обществам, участники этого Ордена Дракона даже не знакомы друг с другом и общаются только через вокалиста, идейного вдохновителя проекта.[/more]

[more=Technical info]
Input File: 03 - Smaug - Death Yell.mp3
Channels : 2
Sample Rate : 44100
Precision : 16-bit
Duration : 00:03:42.08 = 9793684 samples = 16655.9 CDDA sectors
File Size : 8.88M
Bit Rate : 320k
Sample Encoding: MPEG audio (layer I, II or III)
Comments :
Title=Death Yell
Artist=Smaug
Album=Open My Grave
Tracknumber=03
Year=2020
Genre=Black Metal

[/more]

Register
(45) 1968_janeart, acerbus, alikkon, atavist, autumnwood, Boozer, deadpyhto, Der_Hexer, egortitov, fuoco, Hell_Is_Here, Ildjarn, Infidel, infiltrator, judaz, kim666, kranger, Lafii, legion01, Ludwig Hagen, maringlen, Mist13Signifier, multizwilling, nadin85, nsk2008, oldvarg, Olethros, Ostinato, randumbum, robertho777, sacrut, SaintVitus, Scuns, senecazm, sethurius, SilentNidhogg, stone88, supremo, Surt, toly1917, VALERY, varlam4, vasiljev_sergej, WarmasterChorus, xska,
May 14 2020, 14:07:16 Pursued - Decay (2020)
320 kbps
Register
(3) infiltrator, kim666, satanist666,
May 13 2020, 19:32:24 Slaughtbbath - Alchemical Warfare (2019)
Эксгумировал.
Register
(3) MadCarrot, Occultas, varlam4,
May 12 2020, 17:04:51 Grausamkeit - Auswanderung Nach Palästina [bootleg] (2018)
ЦИТАТА(hopeless @ May 12 2020, 16:51:33) *
Это не бутлег, вполне себе официальный релиз.

Это разные релизы. Компиляция давно есть на форуме -

Various Artists - Seelenmorast [compilation] (2019)

Просто издатели бутлега взяли за основу оформление "вполне себе официального релиза".
(2) INDARKNESS, thenecromancer,
May 10 2020, 21:51:43 Saatkrähe - Black Metal Primordial [demo] (2020)


*Artist: Saatkrähe
*Album: Black Metal Primordial [demo]
*Year: 2020
*Genre: Black Metal
*Country: France
*Format: mp3@CBR320kbps
*Size: 126MB

Tracklist:
1. Les étoiles sont autant de corbeaux morts 06:01
2. Black Metal Primordial 09:51
3. Isolé dans le passé 06:06
4. Requiem 07:21
5. Loués soient les oiseaux de nuit 12:21
6. Sous l'emprise de la rase campagne 10:08
7. Corbeaux alter ego 08:19
******************************
Total playing time: 1:00:07

[more=Extended info]Rempart Immortel ‎– RI07

Limited to 100 hand-numbered copies.[/more]

[more=Technical info]
Input File: 02 - Black Metal Primordial.mp3
Channels : 2
Sample Rate : 44100
Precision : 16-bit
Duration : 00:09:51.03 = 26064599 samples = 44327.5 CDDA sectors
File Size : 23.6M
Bit Rate : 320k
Sample Encoding: MPEG audio (layer I, II or III)
Comments :
Title=Black Metal Primordial
Artist=Saatkrähe
Album=Black Metal Primordial
Tracknumber=2/7
Year=2020
Genre=Black Metal

[/more]

Register
(60) 1968_janeart, acerbus, ahp, Alexis The Best, alikkon, andivi, Borderline1991, Branis, cairn, cesar, ChaosArcana, Constantinus I, Corpuscul, Daale, dagger666, dermarsoran, dim0ntius, ent404, Evilded, Frozenkult, Gylve, heinz88, Hell_Is_Here, HowlingSpirit, Ildjarn, infiltrator, kim666, kranger, krotovich, lestllk, Malzus, maringlen, Moonshtook, multizwilling, murian, Nerevar, Ostinato, randumbum, Razorbladeswaltz, RENыч, robertho777, Rosen, satanist666, sethurius, SilentNidhogg, SlimBZ, stub888, thenecromancer, the_cleanser, Tyrone, umnaxtet, VALERY, varg-38ru, varlam4, vasiljev_sergej, Velmi, vosmidesijatye, vovenom, Wail, zhol,
May 10 2020, 21:51:23 Saatkrähe - Vers Ma Tombe... [demo] (2020)


*Artist: Saatkrähe
*Album: Vers Ma Tombe... [demo]
*Year: 2020
*Genre: Black Metal
*Country: France
*Format: mp3@CBR320kbps
*Size: 112MB

Tracklist:
1. Ma tombe 07:19
2. Ténèbres antichrétiennes 07:51
3. Les corbeaux de mes funérailles 09:52
4. Funèbres déterrés 06:26
5. Le chant du cimetière 07:47
6. L'haleine du corbeau 08:57
7. Suprême misanthropique dominance 06:09
******************************
Total playing time: 54:21

[more=Extended info]Rempart Immortel ‎– RI06

Limited to 100 hand-numbered copies.[/more]

[more=Technical info]
Input File: 01 - Ma tombe.mp3
Channels : 2
Sample Rate : 44100
Precision : 16-bit
Duration : 00:07:18.59 = 19341643 samples = 32894 CDDA sectors
File Size : 17.5M
Bit Rate : 320k
Sample Encoding: MPEG audio (layer I, II or III)
Comments :
Title=Ma tombe
Artist=Saatkrähe
Album=Vers ma tombe...
Tracknumber=1/7
Year=2020
Genre=Black Metal

[/more]

Register
(57) 1968_janeart, acerbus, Alexis The Best, andivi, Borderline1991, Branis, cairn, cesar, ChaosArcana, Constantinus I, Corpuscul, dagger666, dermarsoran, dim0ntius, ent404, Evilded, Frozenkult, Gylve, heinz88, Hell_Is_Here, HowlingSpirit, Ildjarn, infiltrator, kim666, Krosis, krotovich, lestllk, Malzus, maringlen, Moonshtook, multizwilling, murian, Nerevar, Olethros, Ostinato, randumbum, Razorbladeswaltz, RENыч, robertho777, Rosen, sarcophagus, satanist666, sethurius, SilentNidhogg, Skog1349, SlimBZ, stub888, thenecromancer, the_cleanser, umnaxtet, varg-38ru, varlam4, vasiljev_sergej, Velmi, vosmidesijatye, vovenom, Wail,
May 9 2020, 13:19:34 Odraza - Rzeczom (2020)
ЦИТАТА(Фо @ May 7 2020, 22:31:36) *
Судя по музыке и недосказанности обложки, тут мы видим попытку рассказать о впечатлениях о минeте в довольно странной музыкальной форме.

Между прочим, модель, чья фотография использована в оформлении альбома, весьма миловидная...



Недосмотр, конечно, что крестик не перевёрнут, ну да ладно...
(3) aedicksucker, DarkHorde, infiltrator,
May 8 2020, 22:30:32 Goatmoon - Demo 3 [demo] (2002)


*Artist: Goatmoon
*Album: Demo 3 [demo]
*Year: 2002
*Genre: Black Metal
*Country: Finland
*Format: mp3@CBR320kbps
*Size: 28MB

Tracklist:
1. Black Metal Winter 03:22
2. In The Cursing Embrace 02:56
3. Pure Blood 02:36
4. Light Will Not Be 02:06
******************************
Total playing time: 10:56

[more=Extended info]Tape-rip by Winterhordes[/more]

[more=Technical info]
Input File: 03 - Pure Blood.mp3
Channels : 2
Sample Rate : 44100
Precision : 16-bit
Duration : 00:02:36.51 = 6902135 samples = 11738.3 CDDA sectors
File Size : 7.10M
Bit Rate : 363k
Sample Encoding: MPEG audio (layer I, II or III)
Comments :
Title=Pure Blood
Artist=Goatmoon
Album=Demo 3
Tracknumber=3
Year=2002
Genre=Black Metal

[/more]

Register
(35) 1968_janeart, Borderline1991, ChaosArcana, Daale, dermarsoran, FUDEDOR, Hell_Is_Here, Ildjarn, infiltrator, LEGION69, lordbathor, maringlen, multizwilling, Oath19, Olethros, Ostinato, randumbum, ravenous, Raw1488, Reverend, Rosen, sacrut, satanist666, stub888, Styx, supremo, thenecromancer, varg-38ru, varlam4, vasiljev_sergej, vovenom, Vraithee, Wail, wgs73, wolverine,
May 8 2020, 22:30:21 Goatmoon - Demo 2 [demo] (2002)


*Artist: Goatmoon
*Album: Demo 2 [demo]
*Year: 2002
*Genre: Black Metal
*Country: Finland
*Format: mp3@CBR320kbps
*Size: 27MB

Tracklist:
1. Pure Blood 02:42
2. Black Metal Winter 03:22
3. Bloodvengeance 02:07
4. Desecration 02:24
******************************
Total playing time: 10:36

[more=Extended info]Tape-rip by Winterhordes[/more]

[more=Technical info]
Input File: 01 - Pure Blood.mp3
Channels : 2
Sample Rate : 44100
Precision : 16-bit
Duration : 00:02:42.44 = 7163648 samples = 12183.1 CDDA sectors
File Size : 7.37M
Bit Rate : 363k
Sample Encoding: MPEG audio (layer I, II or III)
Comments :
Title=Pure Blood
Artist=Goatmoon
Album=Demo 2
Tracknumber=1
Year=2002
Genre=Black Metal

[/more]

Register
(35) 1968_janeart, ChaosArcana, Daale, dermarsoran, FUDEDOR, Hell_Is_Here, Ildjarn, infiltrator, LEGION69, lestllk, lordbathor, maringlen, multizwilling, Oath19, Olethros, Ostinato, peppuzzo, randumbum, ravenous, Reverend, Rosen, sacrut, satanist666, stub888, Styx, supremo, thenecromancer, varg-38ru, varlam4, vasiljev_sergej, vovenom, Vraithee, Wail, wgs73, wolverine,
May 8 2020, 22:30:09 Goatmoon - Demo 1 [demo] (2002)


*Artist: Goatmoon
*Album: Demo 1 [demo]
*Year: 2002
*Genre: Black Metal
*Country: Finland
*Format: mp3@CBR320kbps
*Size: 36MB

Tracklist:
1. Black Metal Winter 03:22
2. From Hate 02:35
3. Tormenting The Son Of The Priests 01:12
4. Pure Blood (Old Version) 03:45
5. Unholy Blaspheme 04:47
******************************
Total playing time: 15:41

[more=Extended info]Tape-rip by Winterhordes[/more]

[more=Technical info]
Input File: 02 - From Hate.mp3
Channels : 2
Sample Rate : 44100
Precision : 16-bit
Duration : 00:02:35.39 = 6852611 samples = 11654.1 CDDA sectors
File Size : 6.29M
Bit Rate : 324k
Sample Encoding: MPEG audio (layer I, II or III)
Comments :
Title=From Hate
Artist=Goatmoon
Album=Demo 1
Tracknumber=2
Year=2002
Genre=Black Metal

[/more]

Register
(37) Boozer, Borderline1991, ChaosArcana, Daale, dermarsoran, FUDEDOR, gena, Hell_Is_Here, Ildjarn, infiltrator, LEGION69, lestllk, lordbathor, maringlen, multizwilling, Oath19, Olethros, Ostinato, peppuzzo, randumbum, ravenous, Reverend, Rosen, satanist666, sethurius, stub888, Styx, supremo, thenecromancer, varg-38ru, varlam4, vasiljev_sergej, vovenom, Vraithee, Wail, wgs73, wolverine,
May 8 2020, 21:59:00 Odraza - Rzeczom (2020)


*Artist: Odraza
*Album: Rzeczom
*Year: 2020
*Genre: Black Metal
*Country: Poland
*Format: mp3@CBR320kbps
*Size: 121MB

Tracklist:
1. Schadenfreude 04:19
2. Rzeczom 05:21
3. W Godzinie Wilka 04:51
4. ...Twoją Rzecz Też 05:44
5. Długa 02:06
6. Świt Opowiadaczy 06:01
7. Młot Na Małe Miasta 05:42
8. Najkrótsza Z Wieczności 05:07
9. Bempo 06:29
10. Ja Nie Stąd 08:02
******************************
Total playing time: 53:42



[more=Extended info]Godz ov War Productions,
May 8th.[/more]

[more=Technical info]
Input File: 02 - Rzeczom.mp3
Channels : 2
Sample Rate : 44100
Precision : 16-bit
Duration : 00:05:21.11 = 14161127 samples = 24083.5 CDDA sectors
File Size : 12.8M
Bit Rate : 320k
Sample Encoding: MPEG audio (layer I, II or III)
Comments :
Title=Rzeczom
Artist=Odraza
Album=Rzeczom
Tracknumber=02
Year=2020
Genre=Black Metal

[/more]

Register
(59) 1968_janeart, acerbus, AlexSmith, as71, atavist, Black Cat, cairn, Constantinus I, DarkHorde, deadwater, egortitov, ent404, Fallen Soul, Fess, Forrrrest, garmonbozia, gena, Golodomor, gongon81, grimoir, Indamage, infiltrator, judaz, kim666, lucifix, maringlen, mart2203, metal73, metaljosue, Moonshtook, multizwilling, nadin85, NecroButcher, nihility, nsk2008, Oath19, obituarydark, Olethros, Ostinato, Radek, randumbum, robertho777, RUDACHUR, sacrut, SadistikSlayer, satanist666, Scorpi, sethurius, SyncestrA, umnaxtet, VALERY, varg-38ru, varlam4, vasiljev_sergej, Vintersorg, vov7609, xska, yuratroll, Авел,
May 7 2020, 19:33:13 Kły - Wyrzyny (2020)
Отражение -
Register
(11) demogogron, ent404, infiltrator, Ostinato, Premature_Devotion, Shadechaser, suseka, tobacco, varlam4, ZambuL, Авел,
May 7 2020, 16:57:44 Heimat - Vrijbuiter (2017)


*Artist: Heimat
*Album: Vrijbuiter
*Year: 2017
*Genre: Black Metal
*Country: Belgium
*Format: mp3@CBR320kbps
*Size: 80MB

Tracklist:
1. De Ondergang Van Mijn Avondland 04:47
2. Prooi 03:02
3. Verzet 03:48
4. Bloedwraak 03:28
5. Erfgoed 03:50
6. Een Wolf In Mij 04:19
7. Schandaal 03:52
8. Monddood 03:13
9. Woudvuren 04:29
******************************
Total playing time: 34:48



[more=Extended info]12" vinyl limited to 100 copies.[/more]

[more=Technical info]
Input File: 01 - De Ondergang Van Mijn Avondland.mp3
Channels : 2
Sample Rate : 44100
Precision : 16-bit
Duration : 00:04:47.31 = 12670547 samples = 21548.5 CDDA sectors
File Size : 11.5M
Bit Rate : 320k
Sample Encoding: MPEG audio (layer I, II or III)
Comments :
Title=De Ondergang Van Mijn Avondland
Artist=Heimat
Album=Vrijbuiter
Tracknumber=01/09
Year=2017
Genre=Black Metal

[/more]

Register
(35) atavist, Brann, craP_cillA, exorcist1969, Ildjarn, infiltrator, kim666, Korpse, legion01, lestllk, Mares, maringlen, Maximvs, multizwilling, nsk2008, Olethros, Ostinato, randumbum, Raw1488, Razorbladeswaltz, robertho777, Rosen, satanist666, sethurius, SilentNidhogg, sor, stub888, Surt, suseka, tim47, VALERY, varg-38ru, varlam4, vasiljev_sergej, Velmi,
May 6 2020, 15:00:58 Aven - Prelude To The Abyss [demo] (2009)
Обновил ссылку в шапке топика.
(1) rimfrost,
May 5 2020, 16:57:10 Draug - Irreelle Sindelag (2020)
Отражение -
Register
(3) dromord, rimfrost, WolfFenrir,

277 Pages V   1 2 3 > » 
- Lo-Fi Version Support form
Copyrights and abuse reports form
Time is now: 8th July 2020 - 12:18:57